Blue System - Forever Blue (Japan) - 1996, (EuroDisco), APE (image+.cue) lossless

Ответить на тему
 
Автор
Сообщение

Admiral ®

Пол:

Стаж: 7 лет 2 месяца

Сообщений: 606

Репутация: 146 [+] [-]

Пост 24-Июн-2014 14:02

[Цитировать] 

--Blue System - Forever Blue-- Жанр: EuroDisco
Страна-производитель диска: Japan
Год издания диска: 1996
Издатель (лейбл): BMG Victor Inc.
Номер по каталогу: BVCP-921
Страна: Germany
Аудио кодек: APE (*.ape)
Тип рипа: image+.cue
Битрейт аудио: lossless
Продолжительность: 00:40:45
Наличие сканов в содержимом раздачи: да
Треклист:

1. Laila 3:27
2. I Wanna Smile 3:54
3. Baby Jealousy 3:44
4. Taxi Girl 3:57
5. All What I Need 3:44
6. Marvin's Song 3:41
7. Love Is Not A Tragedy 3:32
8. Here I Go Again 3:25
9. Une Chambre Pour La Nuit 3:23
10. It's Ecstasy 3:35
11. It's More 4:15

Отчёт EAC

Exact Audio Copy V0.99 prebeta 5 from 4. May 2009
Отчёт EAC об извлечении, выполненном 19. января 2011, 19:54
Blue System / Forever Blue
Дисковод: TEAC CD-W552G Adapter: 1 ID: 0
Режим чтения : Достоверность
Использование точного потока : Да
Отключение кэша аудио : Да
Использование указателей C2 : Нет
Коррекция смещения при чтении : 6
Способность читать области Lead-in и Lead-out : Нет
Заполнение пропущенных сэмплов тишиной : Да
Удаление блоков с тишиной в начале и конце : Нет
При вычислениях CRC использовались нулевые сэмплы : Да
Интерфейс : Встроенный Win32-интерфейс для Win NT/2000
Выходной формат : Внутренние WAV-операции
Формат сэмплов : 44.100 Гц; 16 бит; стерео
TOC извлечённого CD
Трек | Старт | Длительность | Начальный сектор | Конечный сектор
---------------------------------------------------------------------
1 | 0:00.37 | 3:28.58 | 37 | 15694
2 | 3:29.20 | 3:53.22 | 15695 | 33191
3 | 7:22.42 | 3:45.55 | 33192 | 50121
4 | 11:08.22 | 3:58.15 | 50122 | 67986
5 | 15:06.37 | 3:42.73 | 67987 | 84709
6 | 18:49.35 | 3:42.55 | 84710 | 101414
7 | 22:32.15 | 3:33.50 | 101415 | 117439
8 | 26:05.65 | 3:25.65 | 117440 | 132879
9 | 29:31.55 | 3:22.30 | 132880 | 148059
10 | 32:54.10 | 3:35.27 | 148060 | 164211
11 | 36:29.37 | 4:16.00 | 164212 | 183411
Характеристики диапазона извлечения и сообщения об ошибках
Выбранный диапазон
Имя файла D:\EAC\Blue System - Forever Blue.wav
Пиковый уровень 100.0 %
Качество диапазона 100.0 %
CRC теста 2B817CDF
CRC копии 2B817CDF
Копирование... OK
Ошибок не произошло
AccurateRip: сводка
Трек 1 нет в базе данных
Трек 2 нет в базе данных
Трек 3 нет в базе данных
Трек 4 нет в базе данных
Трек 5 нет в базе данных
Трек 6 нет в базе данных
Трек 7 нет в базе данных
Трек 8 нет в базе данных
Трек 9 нет в базе данных
Трек 10 нет в базе данных
Трек 11 нет в базе данных
Ни одного трека нет в базе AccurateRip
Конец отчёта
[Торрент-статистика]
[Профиль]  [ЛС] 
Показать сообщения:    
Ответить на тему

Текущее время: Сегодня 01:04

Часовой пояс: GMT + 4



Вы не можете начинать темы
Вы не можете отвечать на сообщения
Вы не можете редактировать свои сообщения
Вы не можете удалять свои сообщения
Вы не можете голосовать в опросах
Вы не можете прикреплять файлы к сообщениям
Вы не можете скачивать файлы