VA - Fancy & Friends - 2010, (Pop / EuroDisco), FLAC (image+.cue), lossless

Ответить на тему
 
Автор
Сообщение

Admiral ®

Пол:

Стаж: 7 лет 2 месяца

Сообщений: 606

Репутация: 146 [+] [-]

Пост 23-Июн-2014 21:43

[Цитировать] 

--Various Artists - Fancy & Friends-- Жанр: Pop / EuroDisco
Год выпуска диска: 2010
Производитель диска: Germany
Аудио кодек: FLAC
Тип рипа: image+.cue
Битрейт аудио: lossless
Продолжительность: 00:45:01
Треклист:
-01.Micheal Jackson For Siegfried & Roy - Mind Is The Magic (Anthem For The Las Vegas Show) (3:32)
02.Siegfried & Roy - White Lions (2:57)
03.Pet Shop Boys - Westend Girls (5:03)
04.Pet Shop Boys - One More Chance (5:09)
05.Hildegard Knef & Glenn Yarbrough - Ways Of Love (3:51)
06.Fancy - Flames Of Love (3:35)
07.Fancy - All My Loving (1:58)
08.Linda Jo Rizzo From The Flirts - Passion (4:00)
09.Linda Jo Rizzo From The Flirts - You're My First, You're My Last (4:03)
10.Grant Miller - California Train (4:54)
11.Grant Miller - Stranger In My Life (3:35)
12.Jq & The Bandits - Faith (2:25)

Back

Отчёт EAC

Exact Audio Copy V0.99 prebeta 5 from 4. May 2009
Отчёт EAC об извлечении, выполненном 18. июля 2010, 3:35
Various / Fancy & Friends
Дисковод: ASUS DRW-2014S1T Adapter: 0 ID: 4
Режим чтения : Достоверность
Использование точного потока : Да
Отключение кэша аудио : Да
Использование указателей C2 : Нет
Коррекция смещения при чтении : 6
Способность читать области Lead-in и Lead-out : Нет
Заполнение пропущенных сэмплов тишиной : Да
Удаление блоков с тишиной в начале и конце : Нет
При вычислениях CRC использовались нулевые сэмплы : Да
Интерфейс : Установленный внешний ASPI-интерфейс
Выходной формат : Внутренние WAV-операции
Формат сэмплов : 44.100 Гц; 16 бит; стерео
TOC извлечённого CD
Трек | Старт | Длительность | Начальный сектор | Конечный сектор
---------------------------------------------------------------------
1 | 0:00.00 | 3:31.42 | 0 | 15866
2 | 3:31.42 | 2:57.33 | 15867 | 29174
3 | 6:29.00 | 5:02.66 | 29175 | 51890
4 | 11:31.66 | 5:09.21 | 51891 | 75086
5 | 16:41.12 | 3:51.27 | 75087 | 92438
6 | 20:32.39 | 3:34.74 | 92439 | 108562
7 | 24:07.38 | 1:57.56 | 108563 | 117393
8 | 26:05.19 | 4:00.05 | 117394 | 135398
9 | 30:05.24 | 4:03.09 | 135399 | 153632
10 | 34:08.33 | 4:54.04 | 153633 | 175686
11 | 39:02.37 | 3:34.58 | 175687 | 191794
12 | 42:37.20 | 2:24.53 | 191795 | 202647
Характеристики диапазона извлечения и сообщения об ошибках
Выбранный диапазон
Имя файла Z:\Temp\Various - Fancy & Friends.wav
Пиковый уровень 98.8 %
Качество диапазона 100.0 %
CRC теста 733C9013
CRC копии 733C9013
Копирование... OK
Ошибок не произошло
AccurateRip: сводка
Трек 1 нет в базе данных
Трек 2 нет в базе данных
Трек 3 нет в базе данных
Трек 4 нет в базе данных
Трек 5 нет в базе данных
Трек 6 нет в базе данных
Трек 7 нет в базе данных
Трек 8 нет в базе данных
Трек 9 нет в базе данных
Трек 10 нет в базе данных
Трек 11 нет в базе данных
Трек 12 нет в базе данных
Ни одного трека нет в базе AccurateRip
Конец отчёта
[Торрент-статистика]
[Профиль]  [ЛС] 
Показать сообщения:    
Ответить на тему

Текущее время: Сегодня 21:52

Часовой пояс: GMT + 4



Вы не можете начинать темы
Вы не можете отвечать на сообщения
Вы не можете редактировать свои сообщения
Вы не можете удалять свои сообщения
Вы не можете голосовать в опросах
Вы не можете прикреплять файлы к сообщениям
Вы не можете скачивать файлы