VA - The Best Of Personal Records - 1984, (Disco/Hi-Nrg), APE (image+.cue), lossless

Ответить на тему
 
Автор
Сообщение

Admiral ®

Пол:

Стаж: 7 лет 2 месяца

Сообщений: 606

Репутация: 146 [+] [-]

Пост 20-Июн-2014 18:08

[Цитировать] 

--Various Artists - The Best Of Personal Records-- Жанр: Disco/Hi-Nrg
Год выпуска диска: 1984
Производитель диска: USA - Hot Productions
Аудио кодек: APE
Тип рипа: image+.cue
Битрейт аудио: lossless
Продолжительность: 01:11:34
Трэклист:
01. George Kranz - Din Daa Daa 6:19
02. Wish featuring Fonda Rae - Touch Me 9:33
03. Fancy - Chinese Eyes 5:49
04. Fancy - Come Inside 5:00
05. Clair Hicks & Love Exchange - Push Push (In The Bush) 7:11
06. Fancy - Check It Out 6:55
07. Debbie Jacobs (Rock) - Dr.Music 6:18
08. Klinte Jones - In The Heat Of The Night 8:19
09. Midway - Set It Out 6:40
10. Claudja Barry - Born To Love 4:05
11. Inner Life - Let's Change It Up 5:21

Back

Отчёт EAC

Exact Audio Copy V0.99 prebeta 4 from 23. January 2008
Отчёт EAC об извлечении, выполненном 15. июля 2009, 1:24
Various / The Best Of Personal Records
Дисковод: Optiarc DVD RW AD-5200A Adapter: 0 ID: 0
Режим чтения : Достоверность
Использование точного потока : Да
Отключение кэша аудио : Да
Использование указателей C2 : Нет
Коррекция смещения при чтении : 48
Способность читать области Lead-in и Lead-out : Нет
Заполнение пропущенных сэмплов тишиной : Да
Удаление блоков с тишиной в начале и конце : Нет
При вычислениях CRC использовались нулевые сэмплы : Да
Интерфейс : Установленный внешний ASPI-интерфейс
Выходной формат : Внутренние WAV-операции
Формат сэмплов : 44.100 Гц; 16 бит; стерео
TOC извлечённого CD
Трек | Старт | Длительность | Начальный сектор | Конечный сектор
---------------------------------------------------------------------
1 | 0:00.00 | 6:19.50 | 0 | 28474
2 | 6:19.50 | 9:33.60 | 28475 | 71509
3 | 15:53.35 | 5:49.42 | 71510 | 97726
4 | 21:43.02 | 5:00.10 | 97727 | 120236
5 | 26:43.12 | 7:11.03 | 120237 | 152564
6 | 33:54.15 | 6:55.57 | 152565 | 183746
7 | 40:49.72 | 6:18.23 | 183747 | 212119
8 | 47:08.20 | 8:19.17 | 212120 | 249561
9 | 55:27.37 | 6:40.45 | 249562 | 279606
10 | 62:08.07 | 4:05.20 | 279607 | 298001
11 | 66:13.27 | 5:21.13 | 298002 | 322089
Характеристики диапазона извлечения и сообщения об ошибках
Выбранный диапазон
Имя файла E:\002 Various - The Best Of Personal Records\Various - The Best Of Personal Records\Various - The Best Of Personal Records.wav
Пиковый уровень 100.0 %
Качество диапазона 100.0 %
CRC копии 16F837CD
Копирование... OK
Ошибок не произошло
AccurateRip: сводка
Трек 1 нет в базе данных
Трек 2 нет в базе данных
Трек 3 нет в базе данных
Трек 4 нет в базе данных
Трек 5 нет в базе данных
Трек 6 нет в базе данных
Трек 7 нет в базе данных
Трек 8 нет в базе данных
Трек 9 нет в базе данных
Трек 10 нет в базе данных
Трек 11 нет в базе данных
Ни одного трека нет в базе AccurateRip
Конец отчёта
[Торрент-статистика]
[Профиль]  [ЛС] 
Показать сообщения:    
Ответить на тему

Текущее время: Сегодня 18:15

Часовой пояс: GMT + 4



Вы не можете начинать темы
Вы не можете отвечать на сообщения
Вы не можете редактировать свои сообщения
Вы не можете удалять свои сообщения
Вы не можете голосовать в опросах
Вы не можете прикреплять файлы к сообщениям
Вы не можете скачивать файлы