VA - The Best Of Avi Records - 1989, (Disco), APE (image+.cue), lossless

Ответить на тему
 
Автор
Сообщение

Admiral ®

Пол:

Стаж: 7 лет 2 месяца

Сообщений: 606

Репутация: 146 [+] [-]

Пост 20-Июн-2014 17:15

[Цитировать] 

--Various Artists - The Best Of Avi Records-- Жанр: Disco
Год выпуска диска: 1989
Производитель диска: USA - Hot Productions
Аудио кодек: APE
Тип рипа: image+.cue
Битрейт аудио: lossless
Продолжительность: 01:17:37
Трэклист:
01. El Coco - Cocomotion 6:05
02. Le Pamplemousse - La Spank 6:12
03. 7Th Avenue - Miami Heat Wave 6:02
04. The Destinations - I've Got To Dance (To Keep From Crying) 4:46
05. Jerry Rix - Disco Train 5:03
06. L.J.Johnson - My Destination Is Love 5:13
07. Evelyn Thomas - Have A Little Faith In Me 5:09
08. Eastbound Expressway - Never Let Go 6:04
09. James Wells - My Claim To Fame 6:08
10. El Coco - Let's Get It Together 6:02
11. Rinder & Lewis - Willie And The Hand Jive 5:10
12. Dee D.Jackson - Automatic Lover 5:58
13. El Coco - Mondo Disco 5:00
14. Croisette - Keep It On Ice 4:40

Back

Отчёт EAC

Exact Audio Copy V0.99 prebeta 4 from 23. January 2008
Отчёт EAC об извлечении, выполненном 13. июля 2009, 5:50
Various / The Best Of Avi Records
Дисковод: Optiarc DVD RW AD-5200A Adapter: 0 ID: 0
Режим чтения : Достоверность
Использование точного потока : Да
Отключение кэша аудио : Да
Использование указателей C2 : Нет
Коррекция смещения при чтении : 48
Способность читать области Lead-in и Lead-out : Нет
Заполнение пропущенных сэмплов тишиной : Да
Удаление блоков с тишиной в начале и конце : Нет
При вычислениях CRC использовались нулевые сэмплы : Да
Интерфейс : Установленный внешний ASPI-интерфейс
Выходной формат : Внутренние WAV-операции
Формат сэмплов : 44.100 Гц; 16 бит; стерео
TOC извлечённого CD
Трек | Старт | Длительность | Начальный сектор | Конечный сектор
---------------------------------------------------------------------
1 | 0:00.00 | 6:05.10 | 0 | 27384
2 | 6:05.10 | 6:12.25 | 27385 | 55309
3 | 12:17.35 | 6:02.10 | 55310 | 82469
4 | 18:19.45 | 4:46.30 | 82470 | 103949
5 | 23:06.00 | 5:03.45 | 103950 | 126719
6 | 28:09.45 | 5:13.23 | 126720 | 150217
7 | 33:22.68 | 5:09.70 | 150218 | 173462
8 | 38:32.63 | 6:04.62 | 173463 | 200824
9 | 44:37.50 | 6:08.13 | 200825 | 228437
10 | 50:45.63 | 6:02.50 | 228438 | 255637
11 | 56:48.38 | 5:10.05 | 255638 | 278892
12 | 61:58.43 | 5:58.00 | 278893 | 305742
13 | 67:56.43 | 5:00.57 | 305743 | 328299
14 | 72:57.25 | 4:40.33 | 328300 | 349332
Характеристики диапазона извлечения и сообщения об ошибках
Выбранный диапазон
Имя файла E:\02 Various - The Best Of Avi Records\Various - The Best Of Avi Records\Various - The Best Of Avi Records.wav
Пиковый уровень 100.0 %
Качество диапазона 99.9 %
CRC копии FEDBE6E2
Копирование... OK
Ошибок не произошло
AccurateRip: сводка
Трек 1 точность не определена (достоверность 1) [6749743F], AccurateRip вернул [B9DB7D8C]
Трек 2 точность не определена (достоверность 1) [7AD4C828], AccurateRip вернул [16F4CD3C]
Трек 3 точность не определена (достоверность 1) [A52E5F01], AccurateRip вернул [AB6B2EB1]
Трек 4 точность не определена (достоверность 1) [1BB87CBA], AccurateRip вернул [2A2BDA09]
Трек 5 точность не определена (достоверность 1) [5C2FED53], AccurateRip вернул [85E56C8E]
Трек 6 точность не определена (достоверность 1) [ACCC1EEE], AccurateRip вернул [EAFD7B65]
Трек 7 точность не определена (достоверность 1) [BE93784F], AccurateRip вернул [200C7CF1]
Трек 8 точность не определена (достоверность 1) [00F3B183], AccurateRip вернул [0CF77D1F]
Трек 9 точность не определена (достоверность 1) [99D28A8B], AccurateRip вернул [C6F7CC0A]
Трек 10 точность не определена (достоверность 1) [3BBEB701], AccurateRip вернул [CAA61FB4]
Трек 11 точность не определена (достоверность 1) [ECD7580B], AccurateRip вернул [65F686B2]
Трек 12 точность не определена (достоверность 1) [1FA89A2E], AccurateRip вернул [255D611B]
Трек 13 точность не определена (достоверность 1) [4088E4F7], AccurateRip вернул [BBE785DD]
Трек 14 точность не определена (достоверность 1) [170628E7], AccurateRip вернул [FE2476AE]
Ни один трек не прошёл проверки на точность
В вашей базе может быть иной вариант штамповки диска
Конец отчёта
[Торрент-статистика]
[Профиль]  [ЛС] 
Показать сообщения:    
Ответить на тему

Текущее время: Сегодня 07:41

Часовой пояс: GMT + 4



Вы не можете начинать темы
Вы не можете отвечать на сообщения
Вы не можете редактировать свои сообщения
Вы не можете удалять свои сообщения
Вы не можете голосовать в опросах
Вы не можете прикреплять файлы к сообщениям
Вы не можете скачивать файлы