VA - Fulltime - The Very Best Of - 1991, (Italo-Disco/Italo-Funk), APE (image+.cue), lossless

Ответить на тему
 
Автор
Сообщение

Admiral ®

Пол:

Стаж: 7 лет 2 месяца

Сообщений: 606

Репутация: 146 [+] [-]

Пост 20-Июн-2014 13:30

[Цитировать] 

--Various Artists - Fulltime - The Very Best Of-- Жанр: Italo-Disco/Italo-Funk
Год выпуска диска: 1991
Производитель диска: Canada - Unidisc
Аудио кодек: APE
Тип рипа: image+.cue
Битрейт аудио: lossless
Продолжительность: 01:17:38
Трэклист:
01. Kano - I'm Ready 7:13
02. Jimmy Ross - First True Love Affair 6:15
03. Firefly - Love Is Gonna Be On Your Side 7:12
04. Electric Mind - Can We Go 6:10
05. Peter Richard - For You, For Only You 7:05
06. Orlando Johnson - Turn The Music On 6:11
07. Tom Hooker - Only One 5:26
08. Jago - I'm Going To Go 8:33
09. Kano - Another Life 6:27
10. The Creatures - Believe In Yourself 5:46
11. Peter Richard - Strange Desires 5:18
12. Patty Johnson - I'm In Love 5:59

Back

Отчёт EAC

Exact Audio Copy V0.99 prebeta 4 from 23. January 2008
Отчёт EAC об извлечении, выполненном 14. июля 2009, 15:51
Various / Fulltime - The Very Best Of
Дисковод: Optiarc DVD RW AD-5200A Adapter: 0 ID: 0
Режим чтения : Достоверность
Использование точного потока : Да
Отключение кэша аудио : Да
Использование указателей C2 : Нет
Коррекция смещения при чтении : 48
Способность читать области Lead-in и Lead-out : Нет
Заполнение пропущенных сэмплов тишиной : Да
Удаление блоков с тишиной в начале и конце : Нет
При вычислениях CRC использовались нулевые сэмплы : Да
Интерфейс : Установленный внешний ASPI-интерфейс
Выходной формат : Внутренние WAV-операции
Формат сэмплов : 44.100 Гц; 16 бит; стерео
TOC извлечённого CD
Трек | Старт | Длительность | Начальный сектор | Конечный сектор
---------------------------------------------------------------------
1 | 0:00.00 | 7:13.32 | 0 | 32506
2 | 7:13.32 | 6:15.23 | 32507 | 60654
3 | 13:28.55 | 7:12.20 | 60655 | 93074
4 | 20:41.00 | 6:10.02 | 93075 | 120826
5 | 26:51.02 | 7:05.20 | 120827 | 152721
6 | 33:56.22 | 6:11.18 | 152722 | 180564
7 | 40:07.40 | 5:26.37 | 180565 | 205051
8 | 45:34.02 | 8:33.30 | 205052 | 243556
9 | 54:07.32 | 6:27.28 | 243557 | 272609
10 | 60:34.60 | 5:46.27 | 272610 | 298586
11 | 66:21.12 | 5:18.23 | 298587 | 322459
12 | 71:39.35 | 5:59.15 | 322460 | 349399
Характеристики диапазона извлечения и сообщения об ошибках
Выбранный диапазон
Имя файла E:\002 Various - Fulltime - The Very Best Of\Various - Fulltime - The Very Best Of\Various - Fulltime - The Very Best Of.wav
Пиковый уровень 99.8 %
Качество диапазона 99.9 %
CRC копии 2289C1F0
Копирование... OK
Ошибок не произошло
AccurateRip: сводка
Трек 1 нет в базе данных
Трек 2 нет в базе данных
Трек 3 нет в базе данных
Трек 4 нет в базе данных
Трек 5 нет в базе данных
Трек 6 нет в базе данных
Трек 7 нет в базе данных
Трек 8 нет в базе данных
Трек 9 нет в базе данных
Трек 10 нет в базе данных
Трек 11 нет в базе данных
Трек 12 нет в базе данных
Ни одного трека нет в базе AccurateRip
Конец отчёта
[Торрент-статистика]
[Профиль]  [ЛС] 
Показать сообщения:    
Ответить на тему

Текущее время: Сегодня 01:29

Часовой пояс: GMT + 4



Вы не можете начинать темы
Вы не можете отвечать на сообщения
Вы не можете редактировать свои сообщения
Вы не можете удалять свои сообщения
Вы не можете голосовать в опросах
Вы не можете прикреплять файлы к сообщениям
Вы не можете скачивать файлы