VA - I Love Disco Emotions Vol.1 - The Best Feeling Dance Classics ... - 2005, (Disco/Electronic/Italo-Disco), APE (image+.cue), lossless

Ответить на тему
 
Автор
Сообщение

Admiral ®

Пол:

Стаж: 7 лет 2 месяца

Сообщений: 606

Репутация: 146 [+] [-]

Пост 19-Июн-2014 23:19

[Цитировать] 

--Various Artists - I Love Disco Emotions Vol.1 - The Best Feeling Dance Classics ... -- Жанр: Disco/Electronic/Italo-Disco
Страна-производитель диска: Spain
Год издания диска: 2005
Издатель (лейбл): Blanco Y Negro
Номер по каталогу: MXCD 1612 C
Аудио кодек: APE (*.ape)
Тип рипа: image+.cue
Битрейт аудио: lossless
Продолжительность: 01:18:03
Наличие сканов в содержимом раздачи: да
Трэклист:
01. Jan Hammer - Crockett's Theme 5:51
02. Future World Orchestra - Roulette 4:23
03. Giorgio Moroder - Chase 8:27
04. Bebu Silvetti - Spring Rain 5:55
05. Cerrone - Love In C Minor 7:32
06. Space - Magic Fly 4:22
07. Lama - Love On The Rocks 5:18
08. Kasso - Walkman 5:23
09. Carrara - Shine On Dance 8:08
10. Eddie And The Soulband - Theme From Shaft 8:37
11. Harold Faltermeyer - Axel F. 6:07
12. Raul Orellana - Guitarra 7:58

Back

Отчёт EAC

Exact Audio Copy V0.99 prebeta 4 from 23. January 2008
Отчёт EAC об извлечении, выполненном 7. июля 2009, 13:22
Various / I Love Disco Emotions Vol.1
Дисковод: Optiarc DVD RW AD-5200A Adapter: 0 ID: 0
Режим чтения : Достоверность
Использование точного потока : Да
Отключение кэша аудио : Да
Использование указателей C2 : Нет
Коррекция смещения при чтении : 48
Способность читать области Lead-in и Lead-out : Нет
Заполнение пропущенных сэмплов тишиной : Да
Удаление блоков с тишиной в начале и конце : Нет
При вычислениях CRC использовались нулевые сэмплы : Да
Интерфейс : Установленный внешний ASPI-интерфейс
Выходной формат : Внутренние WAV-операции
Формат сэмплов : 44.100 Гц; 16 бит; стерео
TOC извлечённого CD
Трек | Старт | Длительность | Начальный сектор | Конечный сектор
---------------------------------------------------------------------
1 | 0:00.00 | 5:51.16 | 0 | 26340
2 | 5:51.16 | 4:23.33 | 26341 | 46098
3 | 10:14.49 | 8:27.00 | 46099 | 84123
4 | 18:41.49 | 5:55.02 | 84124 | 110750
5 | 24:36.51 | 7:32.13 | 110751 | 144663
6 | 32:08.64 | 4:22.00 | 144664 | 164313
7 | 36:30.64 | 5:18.10 | 164314 | 188173
8 | 41:48.74 | 5:23.15 | 188174 | 212413
9 | 47:12.14 | 8:08.38 | 212414 | 249051
10 | 55:20.52 | 8:37.25 | 249052 | 287851
11 | 63:58.02 | 6:07.00 | 287852 | 315376
12 | 70:05.02 | 7:58.48 | 315377 | 351274
Характеристики диапазона извлечения и сообщения об ошибках
Выбранный диапазон
Имя файла E:\New eac 0\Various - I Love Disco Emotions Vol. 1\Various - I Love Disco Emotions Vol. 1\Various - I Love Disco Emotions Vol. 1.wav
Пиковый уровень 100.0 %
Качество диапазона 100.0 %
CRC копии 6B5C1A96
Копирование... OK
Ошибок не произошло
AccurateRip: сводка
Трек 1 нет в базе данных
Трек 2 нет в базе данных
Трек 3 нет в базе данных
Трек 4 нет в базе данных
Трек 5 нет в базе данных
Трек 6 нет в базе данных
Трек 7 нет в базе данных
Трек 8 нет в базе данных
Трек 9 нет в базе данных
Трек 10 нет в базе данных
Трек 11 нет в базе данных
Трек 12 нет в базе данных
Ни одного трека нет в базе AccurateRip
Конец отчёта
[Торрент-статистика]
[Профиль]  [ЛС] 
Показать сообщения:    
Ответить на тему

Текущее время: Сегодня 07:16

Часовой пояс: GMT + 4



Вы не можете начинать темы
Вы не можете отвечать на сообщения
Вы не можете редактировать свои сообщения
Вы не можете удалять свои сообщения
Вы не можете голосовать в опросах
Вы не можете прикреплять файлы к сообщениям
Вы не можете скачивать файлы