[CD] Гульназ - Так мечтала я - 2014, (Pop), FLAC (image+.cue), lossless

Ответить на тему
 
Автор
Сообщение

Admiral ®

Пол:

Стаж: 7 лет 2 месяца

Сообщений: 606

Репутация: 146 [+] [-]

Пост 17-Июн-2014 17:18

[Цитировать] 

--Гульназ - Так мечтала я-- Жанр: Pop
Страна-производитель диска: Россия
Год издания: 2014
Издатель (лейбл): Издатель: Квадро-Диск - United Music Group издание
Номер по каталогу: UMGCD14-572
Страна: Россия
Аудиокодек: FLAC (*.flac)
Тип рипа: image+.cue
Битрейт аудио: lossless
Продолжительность: 01:19:48
Наличие сканов в содержимом раздачи: да
Треклист:

01. Так мечтала я
02. Одна
03. Параллельно (Dance edit)
04. Под одним зонтом (дуэт с Владимиром Лёвкиным)
05. Забыла забыть
06. Да ну и пусть
07. Роман в сотни страниц
08. Студенточка
09. Ах, какой холодный падал дождь… (дуэт с Игорьком)
10. Малевич
11. Парень Игореша
12. Хочу сказать тебе (дуэт с группой «140 ударов в минуту»)
13. Москва скучает без тебя
14 Подруги (Так решили мы) (дуэт с Марусей)
15. Ах, лето, лето!
16. Я не умею ждать (piano version) (дуэт с Владимиром Лёвкиным)
17. Ангел (дуэт с группой «Планеты»)
18. Параллельно
19. Одна (extended club mix)
20. Так мечтала я (extended club mix)

О Гульназ и альбоме "Так мечтала я

Компания «United Music Group» и студия «Музыка Солнца» представляют дебютный альбом певицы ГУЛЬНАЗ «Так мечтала я».
Гульназ (Gulnaz) соединяет в себе и своем творчестве европейскую интеллигентность и восточную мудрость, воплощая это в образе очаровательной и хрупкой женщины.
На диске 20 треков – ярких, разножанровых, с увлекающими аранжировкам и интересными запоминающимися текстами. Гульназ наполнила песни своей искренностью, которая заставляет слушателей сопереживать и проживать казалось бы обычные истории, где встречаются, любят и расстаются («Забыла забыть», «Одна», «Москва скучает без тебя»), мечтают («Студенточка», «Так мечтала я», «Подруги»), находят свое счастье.
Гульназ занималась музыкой и вокалом с раннего возраста: училась в музыкальной школе, солировала в городском хоре, исполняла как классические, так и народные произведения. На сцене застенчивая Гульназ обретала силу, уверенность, яркий темперамент, складывая из них свой будущий успех, что помогло одновременно с получением высшего музыкального образования работать на студии и записывать вокальными партии со известными исполнителями.
Гульназ - очень яркая артистическая натура, чувствительная и нежная, точно соответствующая стилистике и настроению своих песен – индивидуальных и совершенно современных. Поэтому удачны в ее творчестве и дуэты со многими артистами, часть которых включена в дебютную пластинку: «Я не умею ждать» и «Под одним зонтом» с Владимиром Лёвкиным, «Ах, какой холодный падал дождь» с Игорьком, «Хочу сказать тебе» с группой «140 ударов минуту», «Ангел» с группой «Планеты».
Если после прослушивания лиричных и нежных песен Гульназ у вас возникнет перед глазами образ загадочной принцессы из сказок «Тысячи и одной ночи» - это будет не случайно: Гульназ по-прежнему верит в чудеса, она готова удивлять и вдохновлять публику своим творчеством.

CD Back

Отчёт EAC

Exact Audio Copy V1.0 beta 3 from 29. August 2011
Отчёт EAC об извлечении, выполненном 16. июня 2014, 13:47
Гульназ / Так мечтала я
Дисковод: PIONEER DVD-RW DVR-221L Adapter: 1 ID: 1
Режим чтения : Достоверность
Использование точного потока : Да
Отключение кэша аудио : Да
Использование указателей C2 : Нет
Коррекция смещения при чтении : 6
Способность читать области Lead-in и Lead-out : Нет
Заполнение пропущенных сэмплов тишиной : Да
Удаление блоков с тишиной в начале и конце : Нет
При вычислениях CRC использовались нулевые сэмплы : Да
Интерфейс : Встроенный Win32-интерфейс для Win NT/2000
Выходной формат : Внутренние WAV-операции
Формат сэмплов : 44.100 Гц; 16 бит; стерео
TOC извлечённого CD
Трек | Старт | Длительность | Начальный сектор | Конечный сектор
---------------------------------------------------------------------
1 | 0:00.00 | 3:54.64 | 0 | 17613
2 | 3:54.64 | 3:52.00 | 17614 | 35013
3 | 7:46.64 | 3:56.54 | 35014 | 52767
4 | 11:43.43 | 3:56.54 | 52768 | 70521
5 | 15:40.22 | 3:54.70 | 70522 | 88141
6 | 19:35.17 | 2:49.29 | 88142 | 100845
7 | 22:24.46 | 3:17.29 | 100846 | 115649
8 | 25:42.00 | 3:43.10 | 115650 | 132384
9 | 29:25.10 | 3:53.59 | 132385 | 149918
10 | 33:18.69 | 3:33.63 | 149919 | 165956
11 | 36:52.57 | 4:08.23 | 165957 | 184579
12 | 41:01.05 | 3:31.25 | 184580 | 200429
13 | 44:32.30 | 5:07.29 | 200430 | 223483
14 | 49:39.59 | 4:00.00 | 223484 | 241483
15 | 53:39.59 | 3:42.54 | 241484 | 258187
16 | 57:22.38 | 3:21.72 | 258188 | 273334
17 | 60:44.35 | 4:41.33 | 273335 | 294442
18 | 65:25.68 | 3:41.19 | 294443 | 311036
19 | 69:07.12 | 4:00.18 | 311037 | 329054
20 | 73:07.30 | 6:41.19 | 329055 | 359148
Характеристики диапазона извлечения и сообщения об ошибках
Выбранный диапазон
Имя файла C:\_torrents\Гульназ - Так мечтала я - 2014 (lossless)\Гульназ - Так мечтала я.wav
Пиковый уровень 98.2 %
Скорость извлечения 8.8 X
Качество диапазона 100.0 %
CRC теста 4A2D67AD
CRC копии 4A2D67AD
Копирование... OK
Ошибок не произошло
Конец отчёта
==== Контрольная сумма отчёта BE6F89927D1D8972373AB10E96AE04508D326C128B42A6D6ABF0AF9E5A597656 ====
[Торрент-статистика]
[Профиль]  [ЛС] 
Показать сообщения:    
Ответить на тему

Текущее время: Сегодня 18:58

Часовой пояс: GMT + 4



Вы не можете начинать темы
Вы не можете отвечать на сообщения
Вы не можете редактировать свои сообщения
Вы не можете удалять свои сообщения
Вы не можете голосовать в опросах
Вы не можете прикреплять файлы к сообщениям
Вы не можете скачивать файлы