[CD] Сергей Минаев - Радио Абракадабра [лето '1987] (оригинал) © 1994, (Pop), FLAC (image+.cue), lossless

Ответить на тему
 
Автор
Сообщение

Admiral ®

Пол:

Стаж: 7 лет 2 месяца

Сообщений: 606

Репутация: 146 [+] [-]

Пост 17-Июн-2014 14:46

[Цитировать] 

--Сергей Минаев - Радио Абракадабра [лето '1987]-- Жанр: Pop
Страна-производитель диска: Russia
Год издания: 1994 (1987)
Издатель (лейбл): Anima Vox Co.
Номер по каталогу: AVCD 9130019
Страна: USSR
Аудиокодек: FLAC (*.flac)
Тип рипа: image+.cue
Битрейт аудио: lossless
Продолжительность: 00:59:15
Наличие сканов в содержимом раздачи: да
Треклист:

Сторона A:
01. Вступление 1:14
02. Кто стучится на мой "Хаус"? 6:30
03. Мини-макси 3:25
04. Абракадабра 1:20
05. Тяжелый день 4:39
06. Карина 4:34
07. Рэп диск-жокея 6:12
08. Продолжение 1:35

Сторона B:
09. Вступление 1:13
10. Дым над водой 5:18
11. Абракадабра-2 1:20
12. Сиреневый "Кадиллак" 2:57
13. Край стай 4:23
14. Я хочу тишины... 2:28
15. ВДНХ 4:24
16. Попурри 5:06
17. Не падай духом... 1:12
18. Заключение 1:25

Отчёт EAC

Exact Audio Copy V1.0 beta 3 from 29. August 2011
Отчёт EAC об извлечении, выполненном 9. июня 2014, 9:28
СЕРГЕЙ МИНАЕВ / Радио Абракадабра
Дисковод: ATAPI iHAS124 W Adapter: 0 ID: 1
Режим чтения : Достоверность
Использование точного потока : Да
Отключение кэша аудио : Да
Использование указателей C2 : Нет
Коррекция смещения при чтении : 48
Способность читать области Lead-in и Lead-out : Нет
Заполнение пропущенных сэмплов тишиной : Да
Удаление блоков с тишиной в начале и конце : Нет
При вычислениях CRC использовались нулевые сэмплы : Да
Интерфейс : Встроенный Win32-интерфейс для Win NT/2000
Выходной формат : Пользовательский кодировщик
Выбранный битрейт : 768 kBit/s
Качество : Высокий
Добавление ID3-тега : Нет
Утилита сжатия : C:\Program Files\Exact Audio Copy\FLAC\FLAC.EXE
Дополнительные параметры : -6 -V -T "ARTIST=%artist%" -T "TITLE=%title%" -T "ALBUM=%albumtitle%" -T "DATE=%year%" -T "TRACKNUMBER=%tracknr%" -T "GENRE=%genre%" -T "COMMENT=%comment%" -T "BAND=%albuminterpret%" -T "ALBUMARTIST=%albuminterpret%" -T "COMPOSER=%composer%" %haslyrics%--tag-from-file=LYRICS="%lyricsfile%"%haslyrics% -T "DISCNUMBER=%cdnumber%" -T "TOTALDISCS=%totalcds%" -T "TOTALTRACKS=%numtracks%" %hascover%--picture="%coverfile%"%hascover% %source% -o %dest%
TOC извлечённого CD
Трек | Старт | Длительность | Начальный сектор | Конечный сектор
---------------------------------------------------------------------
1 | 0:00.00 | 1:16.47 | 0 | 5746
2 | 1:16.47 | 6:02.30 | 5747 | 32926
3 | 7:19.02 | 3:50.53 | 32927 | 50229
4 | 11:09.55 | 5:40.72 | 50230 | 75801
5 | 16:50.52 | 4:13.03 | 75802 | 94779
6 | 21:03.55 | 6:49.30 | 94780 | 125484
7 | 27:53.10 | 1:35.30 | 125485 | 132639
8 | 29:28.40 | 1:25.45 | 132640 | 139059
9 | 30:54.10 | 4:13.05 | 139060 | 158039
10 | 35:07.15 | 0:53.32 | 158040 | 162046
11 | 36:00.47 | 1:19.53 | 162047 | 168024
12 | 37:20.25 | 2:59.50 | 168025 | 181499
13 | 40:20.00 | 4:04.70 | 181500 | 199869
14 | 44:24.70 | 2:43.00 | 199870 | 212094
15 | 47:07.70 | 4:32.45 | 212095 | 232539
16 | 51:40.40 | 4:57.12 | 232540 | 254826
17 | 56:37.52 | 1:11.40 | 254827 | 260191
18 | 57:49.17 | 1:25.70 | 260192 | 266636
Характеристики диапазона извлечения и сообщения об ошибках
Выбранный диапазон
Имя файла C:\Users\Администратор\Desktop\СЕРГЕЙ МИНАЕВ - Радио Абракадабра (1994)\СЕРГЕЙ МИНАЕВ - Радио Абракадабра.wav
Пиковый уровень 96.1 %
Скорость извлечения 7.2 X
Качество диапазона 100.0 %
CRC теста 80E73817
CRC копии 80E73817
Копирование... OK
Ошибок не произошло
AccurateRip: сводка
Трек 1 : извлечено точно (доверие 1) [B96CBF79] (AR v1)
Трек 2 : извлечено точно (доверие 1) [3C2DEB78] (AR v1)
Трек 3 : извлечено точно (доверие 1) [2563FE37] (AR v1)
Трек 4 : извлечено точно (доверие 1) [080A6A1B] (AR v1)
Трек 5 : извлечено точно (доверие 1) [C682346B] (AR v1)
Трек 6 : извлечено точно (доверие 1) [63BA19A2] (AR v1)
Трек 7 : извлечено точно (доверие 1) [3A37F279] (AR v1)
Трек 8 : извлечено точно (доверие 1) [B01A15B5] (AR v1)
Трек 9 : извлечено точно (доверие 1) [12DD0658] (AR v1)
Трек 10 : извлечено точно (доверие 1) [D8D67087] (AR v1)
Трек 11 : извлечено точно (доверие 1) [3B0364CA] (AR v1)
Трек 12 : извлечено точно (доверие 1) [2ED1A339] (AR v1)
Трек 13 : извлечено точно (доверие 1) [E3FEBFC9] (AR v1)
Трек 14 : извлечено точно (доверие 1) [C09716DB] (AR v1)
Трек 15 : извлечено точно (доверие 1) [4320150E] (AR v1)
Трек 16 : извлечено точно (доверие 1) [27CECE32] (AR v1)
Трек 17 : извлечено точно (доверие 1) [3FBA58EF] (AR v1)
Трек 18 : извлечено точно (доверие 1) [2823BE1D] (AR v1)
Все треки извлечены точно
Конец отчёта
[Торрент-статистика]
[Профиль]  [ЛС] 
Показать сообщения:    
Ответить на тему

Текущее время: Сегодня 14:07

Часовой пояс: GMT + 4



Вы не можете начинать темы
Вы не можете отвечать на сообщения
Вы не можете редактировать свои сообщения
Вы не можете удалять свои сообщения
Вы не можете голосовать в опросах
Вы не можете прикреплять файлы к сообщениям
Вы не можете скачивать файлы