Images - Le Best Of - 2001, (Euro-Disco), APE (image+.cue), lossless

Ответить на тему
 
Автор
Сообщение

Admiral ®

Пол:

Стаж: 7 лет 2 месяца

Сообщений: 606

Репутация: 146 [+] [-]

Пост 13-Июн-2014 19:17

[Цитировать] 

--Images - Le Best Of-- Жанр: Euro-Disco
Год выпуска диска: 2001
Производитель диска: France - Wagram Music
Аудио кодек: APE
Тип рипа: image+.cue
Битрейт аудио: lossless
Продолжительность: 01:17:47
Трэклист:
01. Les Demons De Minuit 3:27
02. Corps A Corps 3:46
03. Le Coeur En Exil 5:11
04. Maitresse 3:59
05. Quand La Musique Tourne 3:50
06. L'Enfant Des Rizieres 5:03
07. Djiny Tack 2:50
08. Meme Au Paradis 4:09
09. Passager Clandestin 4:33
10. Danger D'Amour 4:07
11. Connection Sur Le Reseau 4:02
12. Nasty 4:13
13. Le Sens Du Rythme 4:14
14. Loin De Toi 4:22
15. Mon Ange 4:40
16. Sauvez L'Amour 4:37
17. Rendez-Nous Nos Reves 4:43
18. Les Demons De Minuit (Version Longue) 6:03

Back

Отчёт EAC

Exact Audio Copy V0.99 prebeta 5 from 4. May 2009
Отчёт EAC об извлечении, выполненном 21. августа 2009, 18:27
Images / Le Best Of
Дисковод: Optiarc DVD RW AD-5200A Adapter: 0 ID: 0
Режим чтения : Достоверность
Использование точного потока : Да
Отключение кэша аудио : Да
Использование указателей C2 : Нет
Коррекция смещения при чтении : 48
Способность читать области Lead-in и Lead-out : Нет
Заполнение пропущенных сэмплов тишиной : Да
Удаление блоков с тишиной в начале и конце : Нет
При вычислениях CRC использовались нулевые сэмплы : Да
Интерфейс : Установленный внешний ASPI-интерфейс
Выходной формат : Внутренние WAV-операции
Формат сэмплов : 44.100 Гц; 16 бит; стерео
TOC извлечённого CD
Трек | Старт | Длительность | Начальный сектор | Конечный сектор
---------------------------------------------------------------------
1 | 0:00.00 | 3:27.17 | 0 | 15541
2 | 3:27.17 | 3:45.45 | 15542 | 32461
3 | 7:12.62 | 5:10.58 | 32462 | 55769
4 | 12:23.45 | 3:59.35 | 55770 | 73729
5 | 16:23.05 | 3:50.22 | 73730 | 91001
6 | 20:13.27 | 5:02.43 | 91002 | 113694
7 | 25:15.70 | 2:49.65 | 113695 | 126434
8 | 28:05.60 | 4:08.70 | 126435 | 145104
9 | 32:14.55 | 4:32.42 | 145105 | 165546
10 | 36:47.22 | 4:07.25 | 165547 | 184096
11 | 40:54.47 | 4:02.08 | 184097 | 202254
12 | 44:56.55 | 4:12.60 | 202255 | 221214
13 | 49:09.40 | 4:13.60 | 221215 | 240249
14 | 53:23.25 | 4:22.22 | 240250 | 259921
15 | 57:45.47 | 4:40.00 | 259922 | 280921
16 | 62:25.47 | 4:36.45 | 280922 | 301666
17 | 67:02.17 | 4:42.45 | 301667 | 322861
18 | 71:44.62 | 6:03.25 | 322862 | 350111
Характеристики диапазона извлечения и сообщения об ошибках
Выбранный диапазон
Имя файла E:\Torrents.Ru - Projects\Images - Le Best Of\Images - Le Best Of\Images - Le Best Of.wav
Пиковый уровень 100.0 %
Качество диапазона 99.9 %
CRC теста 4B7E452F
CRC копии 4B7E452F
Копирование... OK
Ошибок не произошло
AccurateRip: сводка
Трек 1 нет в базе данных
Трек 2 нет в базе данных
Трек 3 нет в базе данных
Трек 4 нет в базе данных
Трек 5 нет в базе данных
Трек 6 нет в базе данных
Трек 7 нет в базе данных
Трек 8 нет в базе данных
Трек 9 нет в базе данных
Трек 10 нет в базе данных
Трек 11 нет в базе данных
Трек 12 нет в базе данных
Трек 13 нет в базе данных
Трек 14 нет в базе данных
Трек 15 нет в базе данных
Трек 16 нет в базе данных
Трек 17 нет в базе данных
Трек 18 нет в базе данных
Ни одного трека нет в базе AccurateRip
Конец отчёта
[Торрент-статистика]
[Профиль]  [ЛС] 
Показать сообщения:    
Ответить на тему

Текущее время: Сегодня 08:01

Часовой пояс: GMT + 4



Вы не можете начинать темы
Вы не можете отвечать на сообщения
Вы не можете редактировать свои сообщения
Вы не можете удалять свои сообщения
Вы не можете голосовать в опросах
Вы не можете прикреплять файлы к сообщениям
Вы не можете скачивать файлы