Hypnosis - Hypnosis - 2001, (Italo-Disco/Space-Synth), FLAC (image+.cue), lossless

Ответить на тему
 
Автор
Сообщение

Admiral ®

Пол:

Стаж: 7 лет 2 месяца

Сообщений: 606

Репутация: 146 [+] [-]

Пост 13-Июн-2014 11:16

[Цитировать] 

--Hypnosis - Hypnosis-- Жанр: Italo-Disco/Space-Synth
Год выпуска диска: 2001
Производитель диска: Germany - ZYX - Golden-Dance-Classics
Аудио кодек: FLAC
Тип рипа: image+.cue
Битрейт аудио: lossless
Продолжительность: 00:47:22
Трэклист:
01. Droid 5:47
02. Inesi 1:14
03. Windland 4:48
04. Argonauts 4:44
05. Pulstar 4:15
06. Bormaz 3:39
07. Astrodance 4:07
08. Space Crusaders 4:14
09. Oxygene 3:51
10. Theme For New Year 5:33
11. Automatic Piano 5:09

Back

Отчет EAC

Exact Audio Copy V0.99 prebeta 5 from 4. May 2009
Отчёт EAC об извлечении, выполненном 1. ноября 2009, 23:59
Hypnosis / Hypnosis
Дисковод: Optiarc DVD RW AD-5200A Adapter: 0 ID: 0
Режим чтения : Достоверность
Использование точного потока : Да
Отключение кэша аудио : Да
Использование указателей C2 : Нет
Коррекция смещения при чтении : 48
Способность читать области Lead-in и Lead-out : Нет
Заполнение пропущенных сэмплов тишиной : Да
Удаление блоков с тишиной в начале и конце : Нет
При вычислениях CRC использовались нулевые сэмплы : Да
Интерфейс : Установленный внешний ASPI-интерфейс
Выходной формат : Внутренние WAV-операции
Формат сэмплов : 44.100 Гц; 16 бит; стерео
TOC извлечённого CD
Трек | Старт | Длительность | Начальный сектор | Конечный сектор
---------------------------------------------------------------------
1 | 0:00.00 | 5:47.00 | 0 | 26024
2 | 5:47.00 | 1:14.05 | 26025 | 31579
3 | 7:01.05 | 4:47.42 | 31580 | 53146
4 | 11:48.47 | 4:44.15 | 53147 | 74461
5 | 16:32.62 | 4:15.33 | 74462 | 93619
6 | 20:48.20 | 3:39.27 | 93620 | 110071
7 | 24:27.47 | 4:07.30 | 110072 | 128626
8 | 28:35.02 | 4:13.55 | 128627 | 147656
9 | 32:48.57 | 3:50.65 | 147657 | 164971
10 | 36:39.47 | 5:33.23 | 164972 | 189969
11 | 42:12.70 | 5:09.20 | 189970 | 213164
Характеристики диапазона извлечения и сообщения об ошибках
Выбранный диапазон
Имя файла E:\Hypnosis - Hypnosis\Hypnosis - Hypnosis.wav
Пиковый уровень 89.1 %
Качество диапазона 100.0 %
CRC теста 71B5851F
CRC копии 71B5851F
Копирование... OK
Ошибок не произошло
AccurateRip: сводка
Трек 1 точное извлечение (доверие 3) [3A658CE7]
Трек 2 точное извлечение (доверие 3) [3937EB88]
Трек 3 точное извлечение (доверие 3) [29E95C91]
Трек 4 точное извлечение (доверие 3) [0F6D52D2]
Трек 5 точное извлечение (доверие 3) [ADC0E830]
Трек 6 точное извлечение (доверие 3) [1174B93E]
Трек 7 точное извлечение (доверие 3) [320BE319]
Трек 8 точное извлечение (доверие 3) [CE32BDF2]
Трек 9 точное извлечение (доверие 3) [F5EA257C]
Трек 10 точное извлечение (доверие 3) [DCAEC342]
Трек 11 точное извлечение (доверие 3) [73A24523]
Все треки извлечены точно
Конец отчёта
[Торрент-статистика]
[Профиль]  [ЛС] 
Показать сообщения:    
Ответить на тему

Текущее время: Сегодня 06:47

Часовой пояс: GMT + 4



Вы не можете начинать темы
Вы не можете отвечать на сообщения
Вы не можете редактировать свои сообщения
Вы не можете удалять свои сообщения
Вы не можете голосовать в опросах
Вы не можете прикреплять файлы к сообщениям
Вы не можете скачивать файлы