Lipstique - At The Discotheque - 1993, (Disco), FLAC (image+.cue), lossless

Ответить на тему
 
Автор
Сообщение

Admiral ®

Пол:

Стаж: 7 лет 2 месяца

Сообщений: 606

Репутация: 146 [+] [-]

Пост 08-Июн-2014 08:36

[Цитировать] 

--Lipstique - At The Discotheque-- Жанр: Disco
Год выпуска диска: 1993
Производитель диска: USA - Hot Productions
Аудио кодек: FLAC
Тип рипа: image+.cue
Битрейт аудио: lossless
Продолжительность: 00:33:04
Трэклист:
01. At The Discotheque 15:02
02. Venus / Light My Fire 7:17
03. I Wanna Play With You / Funny Games 5:32
04. Mah-Nah-Mah-Nah / Disco 4:09
05. Goodnight Sweetheart 1:05

Back

Отчёт EAC

Exact Audio Copy V0.99 prebeta 5 from 4. May 2009
Отчёт EAC об извлечении, выполненном 13. марта 2010, 13:39
Lipstique / At The Discotheque
Дисковод: PIONEER DVD-RW DVR-107D Adapter: 3 ID: 0
Режим чтения : Достоверность
Использование точного потока : Да
Отключение кэша аудио : Да
Использование указателей C2 : Нет
Коррекция смещения при чтении : 48
Способность читать области Lead-in и Lead-out : Нет
Заполнение пропущенных сэмплов тишиной : Да
Удаление блоков с тишиной в начале и конце : Нет
При вычислениях CRC использовались нулевые сэмплы : Да
Интерфейс : Встроенный Win32-интерфейс для Win NT/2000
Выходной формат : Внутренние WAV-операции
Формат сэмплов : 44.100 Гц; 16 бит; стерео
TOC извлечённого CD
Трек | Старт | Длительность | Начальный сектор | Конечный сектор
---------------------------------------------------------------------
1 | 0:00.00 | 15:01.47 | 0 | 67621
2 | 15:01.47 | 7:17.10 | 67622 | 100406
3 | 22:18.57 | 5:31.60 | 100407 | 125291
4 | 27:50.42 | 4:08.65 | 125292 | 143956
5 | 31:59.32 | 1:04.65 | 143957 | 148821
Характеристики диапазона извлечения и сообщения об ошибках
Выбранный диапазон
Имя файла H:\All\Music\Lipstique - At The Discotheque\Lipstique - At The Discotheque.wav
Пиковый уровень 100.0 %
Качество диапазона 100.0 %
CRC теста D6FC1A6F
CRC копии D6FC1A6F
Копирование... OK
Ошибок не произошло
AccurateRip: сводка
Трек 1 точное извлечение (доверие 3) [547004A6]
Трек 2 точное извлечение (доверие 3) [52EADDCF]
Трек 3 точное извлечение (доверие 3) [1F59E71B]
Трек 4 точное извлечение (доверие 3) [F3A7B439]
Трек 5 точное извлечение (доверие 3) [7126A80B]
Все треки извлечены точно
Конец отчёта
[Торрент-статистика]
[Профиль]  [ЛС] 
Показать сообщения:    
Ответить на тему

Текущее время: Сегодня 07:08

Часовой пояс: GMT + 4



Вы не можете начинать темы
Вы не можете отвечать на сообщения
Вы не можете редактировать свои сообщения
Вы не можете удалять свои сообщения
Вы не можете голосовать в опросах
Вы не можете прикреплять файлы к сообщениям
Вы не можете скачивать файлы