Mike Mareen - DeLuxe Collection - 2002, (Eurodance), FLAC (image+.cue) lossless

Ответить на тему
 
Автор
Сообщение

Admiral ®

Пол:

Стаж: 7 лет 2 месяца

Сообщений: 606

Репутация: 146 [+] [-]

Пост 07-Июн-2014 22:38

[Цитировать] 

--Mike Mareen - DeLuxe Collection-- Жанр: Eurodance
Страна-производитель диска: Россия
Год издания диска: 2002
Издатель (лейбл): Dream Sound Studio
Страна: Germany
Аудио кодек: FLAC (*.flac)
Тип рипа: image+.cue
Битрейт аудио: lossless
Продолжительность: 01:16:26
Наличие сканов в содержимом раздачи: да
Треклист:

01. Love Spy [00:06:24]
02. Don't Talk To The Snake [00:05:22]
03. Agent Of Liberty [00:08:54]
04. Dancing In The Dark [00:05:36]
05. Germany [00:05:47]
06. Double Trouble (zeppelin ReMix) [00:06:37]
07. Lady Ecstasy [00:05:35]
08. Let's Start Now [00:07:28]
09. Stand Up [00:06:32]
10. Don't Leave Me Now [00:05:50]
11. Here I Am [00:05:09]
12. Mike-Mareen-Powerplay-Mix [00:07:07]

Отчёт EAC

Exact Audio Copy V0.99 prebeta 5 from 4. May 2009
Отчёт EAC об извлечении, выполненном 20. ноября 2010, 17:15
Mike Mareen / DeLuxe Collection
Дисковод: Optiarc DVD RW AD-7203A Adapter: 1 ID: 0
Режим чтения : Достоверность
Использование точного потока : Да
Отключение кэша аудио : Да
Использование указателей C2 : Нет
Коррекция смещения при чтении : 48
Способность читать области Lead-in и Lead-out : Нет
Заполнение пропущенных сэмплов тишиной : Да
Удаление блоков с тишиной в начале и конце : Нет
При вычислениях CRC использовались нулевые сэмплы : Да
Интерфейс : Встроенный Win32-интерфейс для Win NT/2000
Выходной формат : Пользовательский кодировщик
Выбранный битрейт : 1024 kBit/s
Качество : Высокий
Добавление ID3-тэга : Да
Утилита сжатия : C:\Program Files\Exact Audio Copy\FLAC\FLAC.EXE
Дополнительные параметры : -8 -V -T "ARTIST=%a" -T "TITLE=%t" -T "ALBUM=%g" -T "DATE=%y" -T "TRACKNUMBER=%n" -T "GENRE=%m" -T "COMMENT=EAC FLAC -8" %s
TOC извлечённого CD
Трек | Старт | Длительность | Начальный сектор | Конечный сектор
---------------------------------------------------------------------
1 | 0:00.01 | 6:24.31 | 1 | 28831
2 | 6:24.32 | 5:22.58 | 28832 | 53039
3 | 11:47.15 | 8:54.45 | 53040 | 93134
4 | 20:41.60 | 5:36.51 | 93135 | 118385
5 | 26:18.36 | 5:47.14 | 118386 | 144424
6 | 32:05.50 | 6:37.14 | 144425 | 174213
7 | 38:42.64 | 5:35.33 | 174214 | 199371
8 | 44:18.22 | 7:28.11 | 199372 | 232982
9 | 51:46.33 | 6:32.45 | 232983 | 262427
10 | 58:19.03 | 5:50.34 | 262428 | 288711
11 | 64:09.37 | 5:09.73 | 288712 | 311959
12 | 69:19.35 | 7:07.32 | 311960 | 344016
Характеристики диапазона извлечения и сообщения об ошибках
Выбранный диапазон
Имя файла F:\СВОИ РЕЛИЗЫ\Mike Mareen 2002 ''DeLuxe Collection (Limited Edition)''\Mike Mareen - DeLuxe Collection.wav
Пиковый уровень 100.0 %
Качество диапазона 100.0 %
CRC теста 284EFDC7
CRC копии 284EFDC7
Копирование... OK
Ошибок не произошло
AccurateRip: сводка
Трек 1 точное извлечение (доверие 1) [E3732D88]
Трек 2 точное извлечение (доверие 1) [E28C1A21]
Трек 3 точное извлечение (доверие 1) [8FB4F383]
Трек 4 точное извлечение (доверие 1) [E079426E]
Трек 5 точное извлечение (доверие 1) [7B22BF07]
Трек 6 точное извлечение (доверие 1) [54153853]
Трек 7 точное извлечение (доверие 1) [504EBE29]
Трек 8 точное извлечение (доверие 1) [1E6CB81D]
Трек 9 точное извлечение (доверие 1) [258B3B46]
Трек 10 точное извлечение (доверие 1) [36E14D6B]
Трек 11 точное извлечение (доверие 1) [E100C0EA]
Трек 12 точное извлечение (доверие 1) [B62A30C6]
Все треки извлечены точно
Конец отчёта
[Торрент-статистика]
[Профиль]  [ЛС] 
Показать сообщения:    
Ответить на тему

Текущее время: Сегодня 14:49

Часовой пояс: GMT + 4



Вы не можете начинать темы
Вы не можете отвечать на сообщения
Вы не можете редактировать свои сообщения
Вы не можете удалять свои сообщения
Вы не можете голосовать в опросах
Вы не можете прикреплять файлы к сообщениям
Вы не можете скачивать файлы