VA - I Love Mixes Vol.2 (Fonny De Wulf Megamix) - 2003, (Italo-Disco), APE (image+.cue), lossless

Ответить на тему
 
Автор
Сообщение

Admiral ®

Пол:

Стаж: 7 лет 2 месяца

Сообщений: 606

Репутация: 146 [+] [-]

Пост 07-Июн-2014 12:32

[Цитировать] 

--Various Artists - I Love Mixes Vol.2 (Fonny De Wulf Megamix)-- Жанр: Italo-Disco
Год выпуска диска: 2003
Производитель диска: Spain
Аудио кодек: APE
Тип рипа: image+.cue
Битрейт аудио: lossless
Продолжительность: 00:31:02
Трэклист:
01. Megamix - 10:02
01.01. Rofo - Rofo's Theme (Let's Go)
01.02. Michael Bow - Love & Devotion
01.03. Rofo - I Want You
01.04. Samantha Guilles - Let Me Feel It
01.05. Michael Bow - Freak It Out, Freak It In
01.06. Bianca - One More Time
01.07. John Sauli - Miss Liberty
01.08. Rofo - Flashlight On A Disconight
01.09. Michael Bow - One Shot So Hot

02. Megamix By ED ''Disconet'' Smith - 11:52
02.01. Rofo - Rofo's Theme (Let's Go)
02.02. Samantha Guilles - Let Me Feel It
02.03. Quincy - Walking Along (The Real One Came)
02.04. Bianca - One More Time
02.05. Michael Bow - One Shot So Hot
02.06. Michael Bow - Love & Devotion
02.07. John Sauli - Miss Liberty
02.08. Rofo - Flashlight On A Disconight
02.09. Michael Bow - Freak It Out, Freak It In
02.10. Rofo - I Want You

03. Rofo's Mix - 09:08
03.01. Rofo's Theme (Let's Go)
03.02. I Want You
03.03. Sweet Conversation
03.04. Flashlight On A Disconight
03.05. You've Got To Move It On
03.06. Miss Liberty
03.07. Tonight Is The Night
03.08. Cuanto Questa

Back

Отчёт EAC

Exact Audio Copy V0.99 prebeta 4 from 23. January 2008
Отчёт EAC об извлечении, выполненном 31. июля 2009, 22:12
Various / I Love Mixes Vol.2 ''Fonny De Wulf Megamix'' 1988
Дисковод: Optiarc DVD RW AD-5200A Adapter: 0 ID: 0
Режим чтения : Достоверность
Использование точного потока : Да
Отключение кэша аудио : Да
Использование указателей C2 : Нет
Коррекция смещения при чтении : 48
Способность читать области Lead-in и Lead-out : Нет
Заполнение пропущенных сэмплов тишиной : Да
Удаление блоков с тишиной в начале и конце : Нет
При вычислениях CRC использовались нулевые сэмплы : Да
Интерфейс : Установленный внешний ASPI-интерфейс
Выходной формат : Внутренние WAV-операции
Формат сэмплов : 44.100 Гц; 16 бит; стерео
TOC извлечённого CD
Трек | Старт | Длительность | Начальный сектор | Конечный сектор
---------------------------------------------------------------------
1 | 0:00.00 | 10:02.16 | 0 | 45165
2 | 10:02.16 | 11:52.16 | 45166 | 98581
3 | 21:54.32 | 9:08.52 | 98582 | 139733
Характеристики диапазона извлечения и сообщения об ошибках
Выбранный диапазон
Имя файла E:\Torrents.Ru - Projects\0 Various - I Love Mixes Vol.2,3\Various - I Love Mixes Vol.2,3\Various - I Love Mixes Vol.2 ''Fonny De Wulf Megamix'' 1988\Various - I Love Mixes Vol.2 ''Fonny De Wulf Megamix'' 1988.wav
Пиковый уровень 100.0 %
Качество диапазона 100.0 %
CRC теста 202597E0
CRC копии 202597E0
Копирование... OK
Ошибок не произошло
AccurateRip: сводка
Трек 1 нет в базе данных
Трек 2 нет в базе данных
Трек 3 нет в базе данных
Ни одного трека нет в базе AccurateRip
Конец отчёта
[Торрент-статистика]
[Профиль]  [ЛС] 
Показать сообщения:    
Ответить на тему

Текущее время: Сегодня 21:41

Часовой пояс: GMT + 4



Вы не можете начинать темы
Вы не можете отвечать на сообщения
Вы не можете редактировать свои сообщения
Вы не можете удалять свои сообщения
Вы не можете голосовать в опросах
Вы не можете прикреплять файлы к сообщениям
Вы не можете скачивать файлы