Valerie Dore - The Best Of - 1992, (Italo-Disco),FLAC (image+.cue), lossless

Ответить на тему
 
Автор
Сообщение

Admiral ®

Пол:

Стаж: 7 лет 2 месяца

Сообщений: 606

Репутация: 146 [+] [-]

Пост 03-Июн-2014 13:37

[Цитировать] 

--Valerie Dore - The Best Of-- Жанр: Italo-Disco
Год выпуска диска: 1992
Производитель диска: Germany - ZYX
Аудио кодек: FLAC
Тип рипа: image+.cue
Битрейт аудио: lossless
Продолжительность: 01:06:48
Трэклист:
01. The Night (Original Mix) 5:46
02. Get Closer (Vocal) 6:01
03. It's So Easy 6:30
04. The Battle 2:06
05. Bow And Arrow 3:56
06. The Wizard 3:40
07. King Arthur 3:50
08. The Magic Rain 4:04
09. Guinnevere 3:49
10. Lancelot 4:32
11. On The Run 3:53
12. The Sword Inside The Heart 4:04
13. The End Of The Story 3:10
14. The Night (Oliver Momm Club Mix) 5:22
15. The Night (Oliver Momm Extended Radio Mix) 6:06

Back

Отчёт EAC

Exact Audio Copy V0.99 prebeta 5 from 4. May 2009
Отчёт EAC об извлечении, выполненном 13. июня 2010, 15:35
Valerie Dore / The Best Of
Дисковод: Optiarc DVD RW AD-5200A Adapter: 0 ID: 0
Режим чтения : Достоверность
Использование точного потока : Да
Отключение кэша аудио : Да
Использование указателей C2 : Нет
Коррекция смещения при чтении : 48
Способность читать области Lead-in и Lead-out : Нет
Заполнение пропущенных сэмплов тишиной : Да
Удаление блоков с тишиной в начале и конце : Нет
При вычислениях CRC использовались нулевые сэмплы : Да
Интерфейс : Встроенный Win32-интерфейс для Win NT/2000
Выходной формат : Внутренние WAV-операции
Формат сэмплов : 44.100 Гц; 16 бит; стерео
TOC извлечённого CD
Трек | Старт | Длительность | Начальный сектор | Конечный сектор
---------------------------------------------------------------------
1 | 0:00.00 | 5:46.00 | 0 | 25949
2 | 5:46.00 | 6:01.25 | 25950 | 53049
3 | 11:47.25 | 6:29.50 | 53050 | 82274
4 | 18:17.00 | 2:06.00 | 82275 | 91724
5 | 20:23.00 | 3:56.00 | 91725 | 109424
6 | 24:19.00 | 3:40.00 | 109425 | 125924
7 | 27:59.00 | 3:50.00 | 125925 | 143174
8 | 31:49.00 | 4:04.00 | 143175 | 161474
9 | 35:53.00 | 3:49.00 | 161475 | 178649
10 | 39:42.00 | 4:32.00 | 178650 | 199049
11 | 44:14.00 | 3:53.00 | 199050 | 216524
12 | 48:07.00 | 4:04.00 | 216525 | 234824
13 | 52:11.00 | 3:10.00 | 234825 | 249074
14 | 55:21.00 | 5:22.00 | 249075 | 273224
15 | 60:43.00 | 6:05.57 | 273225 | 300656
Характеристики диапазона извлечения и сообщения об ошибках
Выбранный диапазон
Имя файла D:\All\Music\Valerie Dore - The Best Of\Valerie Dore - The Best Of.wav
Пиковый уровень 100.0 %
Качество диапазона 99.9 %
CRC теста 4627593B
CRC копии 4627593B
Копирование... OK
Ошибок не произошло
AccurateRip: сводка
Трек 1 точное извлечение (доверие 6) [A84C977E]
Трек 2 точное извлечение (доверие 6) [24C4DBDD]
Трек 3 точное извлечение (доверие 6) [86A5B56F]
Трек 4 точное извлечение (доверие 6) [79608D28]
Трек 5 точное извлечение (доверие 6) [A07F47E0]
Трек 6 точное извлечение (доверие 6) [A8F79C62]
Трек 7 точное извлечение (доверие 6) [0C1C0642]
Трек 8 точное извлечение (доверие 6) [7ACDEC5F]
Трек 9 точное извлечение (доверие 6) [CC5F4CA0]
Трек 10 точное извлечение (доверие 6) [B59D665D]
Трек 11 точное извлечение (доверие 6) [C3CF48A3]
Трек 12 точное извлечение (доверие 5) [B8AEF2A5]
Трек 13 точное извлечение (доверие 4) [2B7F3B4D]
Трек 14 точное извлечение (доверие 3) [CE2CC247]
Трек 15 точное извлечение (доверие 6) [FAEFEB5A]
Все треки извлечены точно
Конец отчёта
[Торрент-статистика]
[Профиль]  [ЛС] 
Показать сообщения:    
Ответить на тему

Текущее время: Сегодня 13:40

Часовой пояс: GMT + 4



Вы не можете начинать темы
Вы не можете отвечать на сообщения
Вы не можете редактировать свои сообщения
Вы не можете удалять свои сообщения
Вы не можете голосовать в опросах
Вы не можете прикреплять файлы к сообщениям
Вы не можете скачивать файлы