Talking System (Modern System) - Album+ 2 Singles - 2008-2009, (EuroDisco), FLAC (image+.cue), lossless

Ответить на тему
 
Автор
Сообщение

Admiral ®

Пол:

Стаж: 7 лет 2 месяца

Сообщений: 606

Репутация: 146 [+] [-]

Пост 23-Май-2014 17:29

[Цитировать] 

--Talking System (Modern System) - Album+ 2 Singles-- Жанр: EuroDisco
Год выпуска диска: 2008-2009
Производитель диска: Germany
Аудио кодек: FLAC
Тип рипа: image+.cue
Битрейт аудио: lossless
Продолжительность: 01:32:23

О группе:

Talking System (Modern System) - проект участников Systems In Blue.
Album

2008.(In My) Backstreet Heaven

01. (In My) Backstreet Heaven (3:10)
02. My Bed Is Too Big (3:27)
03. Sexy Sexy Lover (3:42)
04. Doctor Mabuse (4:55)
05. Ready For The Victory (3:39)
06. Lucifer (3:32)
07. You Are Not Alone (3:45)
08. Sorry Little Sarah (3:15)
09. China In Her Eyes (3:48)
10. Deja Vu (3:35)
11. You're My Heart You're My Soul (3:18)
12. Six Years - Six Nights (3:57)
13. Brother Louie (3:28)
14. Under My Skin (3:37)
15. Cheri Cheri Lady (2:56)
16. (In My) Backstreet Heaven (Sn-Malone Dub Mix) (3:42)
Singles

2008.(In My) Backstreet Heaven

01. (In My) Backstreet Heaven (Radio TV Version) (2:49)
02. (In My) Backstreet Heaven (alt. Radio TV Version) (2:34)
03. (In My) Backstreet Heaven (Single Mix) (3:11)
04. (In My) Backstreet Heaven (alt. Single Mix) (3:26)
05. (In My) Backstreet Heaven (Party Fox Mix) (2:50)
06. (In My) Backstreet Heaven (Clubsequencer Remix) (3:39)

2009.Rock Your Moviestar

01. Rock Your Moviestar (Airplay Mix) (3:29)
02. Rock Your Moviestar (Party Mix) (3:21)
03. Rock Your Moviestar (Disco Mix) (3:18)
04. Rock Your Moviestar (Clubsequencer RMX) (3:29)
05. Rock Your Moviestar (The Ballad) (3:17)

Отчёты EAC

Отчёт EAC - 2008.(In My) Backstreet Heaven (Album)

Exact Audio Copy V0.99 prebeta 4 from 23. January 2008
Отчёт EAC об извлечении, выполненном 8. февраля 2009, 1:37
Talking System / In My Backstreet Heaven
Дисковод: ASUS DRW-2014S1T Adapter: 3 ID: 0
Режим чтения : Достоверность
Использование точного потока : Да
Отключение кэша аудио : Да
Использование указателей C2 : Нет
Коррекция смещения при чтении : 6
Способность читать области Lead-in и Lead-out : Нет
Заполнение пропущенных сэмплов тишиной : Да
Удаление блоков с тишиной в начале и конце : Нет
При вычислениях CRC использовались нулевые сэмплы : Да
Интерфейс : Установленный внешний ASPI-интерфейс
Выходной формат : Внутренние WAV-операции
Формат сэмплов : 44.100 Гц; 16 бит; стерео
TOC извлечённого CD
Трек | Старт | Длительность | Начальный сектор | Конечный сектор
---------------------------------------------------------------------
1 | 0:00.00 | 3:10.17 | 0 | 14266
2 | 3:10.17 | 3:26.52 | 14267 | 29768
3 | 6:36.69 | 3:41.74 | 29769 | 46417
4 | 10:18.68 | 4:54.57 | 46418 | 68524
5 | 15:13.50 | 3:39.20 | 68525 | 84969
6 | 18:52.70 | 3:31.43 | 84970 | 100837
7 | 22:24.38 | 3:44.50 | 100838 | 117687
8 | 26:09.13 | 3:15.27 | 117688 | 132339
9 | 29:24.40 | 3:48.33 | 132340 | 149472
10 | 33:12.73 | 3:34.73 | 149473 | 165595
11 | 36:47.71 | 3:17.50 | 165596 | 180420
12 | 40:05.46 | 3:57.36 | 180421 | 198231
13 | 44:03.07 | 3:27.53 | 198232 | 213809
14 | 47:30.60 | 3:37.11 | 213810 | 230095
15 | 51:07.71 | 2:55.56 | 230096 | 243276
16 | 54:03.52 | 3:41.45 | 243277 | 259896
Характеристики диапазона извлечения и сообщения об ошибках
Выбранный диапазон
Имя файла Z:\Temp\Talking System - In My Backstreet Heaven.wav
Пиковый уровень 98.1 %
Качество диапазона 100.0 %
CRC теста B320623C
CRC копии B320623C
Копирование... OK
Ошибок не произошло
AccurateRip: сводка
Трек 1 нет в базе данных
Трек 2 нет в базе данных
Трек 3 нет в базе данных
Трек 4 нет в базе данных
Трек 5 нет в базе данных
Трек 6 нет в базе данных
Трек 7 нет в базе данных
Трек 8 нет в базе данных
Трек 9 нет в базе данных
Трек 10 нет в базе данных
Трек 11 нет в базе данных
Трек 12 нет в базе данных
Трек 13 нет в базе данных
Трек 14 нет в базе данных
Трек 15 нет в базе данных
Трек 16 нет в базе данных
Ни одного трека нет в базе AccurateRip
Конец отчёта

Отчёт EAC - 2008.(In My) Backstreet Heaven (Single)

Exact Audio Copy V0.99 prebeta 4 from 23. January 2008
Отчёт EAC об извлечении, выполненном 18. января 2009, 19:28
Modern System / (In My) Backstreet Heaven
Дисковод: ASUS DRW-2014S1T Adapter: 3 ID: 0
Режим чтения : Достоверность
Использование точного потока : Да
Отключение кэша аудио : Да
Использование указателей C2 : Нет
Коррекция смещения при чтении : 6
Способность читать области Lead-in и Lead-out : Нет
Заполнение пропущенных сэмплов тишиной : Да
Удаление блоков с тишиной в начале и конце : Нет
При вычислениях CRC использовались нулевые сэмплы : Да
Интерфейс : Встроенный Win32-интерфейс для Win NT/2000
Выходной формат : Внутренние WAV-операции
Формат сэмплов : 44.100 Гц; 16 бит; стерео
TOC извлечённого CD
Трек | Старт | Длительность | Начальный сектор | Конечный сектор
---------------------------------------------------------------------
1 | 0:00.00 | 2:48.49 | 0 | 12648
2 | 2:48.49 | 2:33.51 | 12649 | 24174
3 | 5:22.25 | 3:10.41 | 24175 | 38465
4 | 8:32.66 | 3:25.44 | 38466 | 53884
5 | 11:58.35 | 2:49.69 | 53885 | 66628
6 | 14:48.29 | 3:39.33 | 66629 | 83086
Характеристики диапазона извлечения и сообщения об ошибках
Выбранный диапазон
Имя файла Z:\Temp\Modern System - (In My) Backstreet Heaven.wav
Пиковый уровень 98.1 %
Качество диапазона 100.0 %
CRC теста D6D5FD45
CRC копии D6D5FD45
Копирование... OK
Ошибок не произошло
AccurateRip: сводка
Трек 1 нет в базе данных
Трек 2 нет в базе данных
Трек 3 нет в базе данных
Трек 4 нет в базе данных
Трек 5 нет в базе данных
Трек 6 нет в базе данных
Ни одного трека нет в базе AccurateRip
Конец отчёта

Отчёт EAC - 2009.Rock Your Moviestar (Single)

Exact Audio Copy V0.99 prebeta 5 from 4. May 2009
Отчёт EAC об извлечении, выполненном 15. сентября 2009, 20:05
Talking System / Rock Your Moviestar
Дисковод: TSSTcorpDVD-ROM SH-D162C Adapter: 2 ID: 1
Режим чтения : Достоверность
Использование точного потока : Да
Отключение кэша аудио : Да
Использование указателей C2 : Нет
Коррекция смещения при чтении : 6
Способность читать области Lead-in и Lead-out : Нет
Заполнение пропущенных сэмплов тишиной : Да
Удаление блоков с тишиной в начале и конце : Нет
При вычислениях CRC использовались нулевые сэмплы : Да
Интерфейс : Установленный внешний ASPI-интерфейс
Выходной формат : Внутренние WAV-операции
Формат сэмплов : 44.100 Гц; 16 бит; стерео
TOC извлечённого CD
Трек | Старт | Длительность | Начальный сектор | Конечный сектор
---------------------------------------------------------------------
1 | 0:00.00 | 3:28.60 | 0 | 15659
2 | 3:28.60 | 3:20.58 | 15660 | 30717
3 | 6:49.43 | 3:18.01 | 30718 | 45568
4 | 10:07.44 | 3:28.56 | 45569 | 61224
5 | 13:36.25 | 3:17.09 | 61225 | 76008
Характеристики диапазона извлечения и сообщения об ошибках
Выбранный диапазон
Имя файла K:\Temp\Talking System - Rock Your Moviestar\Talking System - Rock Your Moviestar.wav
Пиковый уровень 49.0 %
Качество диапазона 99.9 %
CRC теста 2B98643A
CRC копии 2B98643A
Копирование... OK
Ошибок не произошло
AccurateRip: сводка
Трек 1 нет в базе данных
Трек 2 нет в базе данных
Трек 3 нет в базе данных
Трек 4 нет в базе данных
Трек 5 нет в базе данных
Ни одного трека нет в базе AccurateRip
Конец отчёта
[Торрент-статистика]
[Профиль]  [ЛС] 
Показать сообщения:    
Ответить на тему

Текущее время: Сегодня 21:52

Часовой пояс: GMT + 4



Вы не можете начинать темы
Вы не можете отвечать на сообщения
Вы не можете редактировать свои сообщения
Вы не можете удалять свои сообщения
Вы не можете голосовать в опросах
Вы не можете прикреплять файлы к сообщениям
Вы не можете скачивать файлы