Modern Talking - Brother Louie '99 (CD-Maxi) - 1999, (EuroDisco), FLAC (image+.cue), lossless

Ответить на тему
 
Автор
Сообщение

Admiral ®

Пол:

Стаж: 7 лет 2 месяца

Сообщений: 606

Репутация: 146 [+] [-]

Пост 23-Май-2014 17:22

[Цитировать] 

--Modern Talking - Brother Louie '99 (CD-Maxi)-- Жанр: EuroDisco
Год выпуска диска: 1999
Производитель диска: UK
Аудио кодек: FLAC
Тип рипа: image+.cue
Битрейт аудио: lossless
Продолжительность: 00:17:43
Треклист:

01. Brother Louie '99 (DJ Cappiccio Radio Mix) (3:54)
02. Brother Louie '99 (Extended Mix) (7:35)
03. Brother Louie '99 (Metro Club Mix) (6:14)

Back

Отчёт EAC

Exact Audio Copy V0.99 prebeta 4 from 23. January 2008
Отчёт EAC об извлечении, выполненном 8. сентября 2008, 3:48
Modern Talking / Brother Louie '99
Дисковод: PLEXTOR DVDR PX-810UF Adapter: 2 ID: 0
Режим чтения : Достоверность
Использование точного потока : Да
Отключение кэша аудио : Да
Использование указателей C2 : Нет
Коррекция смещения при чтении : 667
Способность читать области Lead-in и Lead-out : Нет
Заполнение пропущенных сэмплов тишиной : Да
Удаление блоков с тишиной в начале и конце : Нет
При вычислениях CRC использовались нулевые сэмплы : Да
Интерфейс : Встроенный Win32-интерфейс для Win NT/2000
Выходной формат : Внутренние WAV-операции
Формат сэмплов : 44.100 Гц; 16 бит; стерео
TOC извлечённого CD
Трек | Старт | Длительность | Начальный сектор | Конечный сектор
---------------------------------------------------------------------
1 | 0:00.00 | 3:54.30 | 0 | 17579
2 | 3:54.30 | 7:34.70 | 17580 | 51699
3 | 11:29.25 | 6:13.50 | 51700 | 79724
Характеристики диапазона извлечения и сообщения об ошибках
Выбранный диапазон
Имя файла Z:\Temp\Modern Talking - Brother Louie '99.wav
Пиковый уровень 99.4 %
Качество диапазона 99.9 %
CRC копии BF88D653
Копирование... OK
Ошибок не произошло
AccurateRip: сводка
Трек 1 нет в базе данных
Трек 2 нет в базе данных
Трек 3 нет в базе данных
Ни одного трека нет в базе AccurateRip
Конец отчёта
UK версия Maxi-CD.
[Торрент-статистика]
[Профиль]  [ЛС] 
Показать сообщения:    
Ответить на тему

Текущее время: Сегодня 14:29

Часовой пояс: GMT + 4



Вы не можете начинать темы
Вы не можете отвечать на сообщения
Вы не можете редактировать свои сообщения
Вы не можете удалять свои сообщения
Вы не можете голосовать в опросах
Вы не можете прикреплять файлы к сообщениям
Вы не можете скачивать файлы