Gilla - Help ! Help ! (ESonCD) - 2010, (Disco), FLAC (image+.cue), lossless

Ответить на тему
 
Автор
Сообщение

Admiral ®

Пол:

Стаж: 7 лет 2 месяца

Сообщений: 606

Репутация: 146 [+] [-]

Пост 14-Май-2014 17:45

[Цитировать] 

--Gilla - Help ! Help !-- Жанр: Disco
Год выпуска диска: 2010
Производитель диска: Russia (ESonCD)
Аудио кодек: FLAC
Тип рипа: image+.cue
Битрейт аудио: lossless
Продолжительность: 00:48:25
Трэклист:
01. Help ! Help ! 3:09
02. Gentlemen Callers Not Allowed 4:00
03. Say Yes 3:36
04. A Baby Of Love 3:37
05. Hold On 3:52
06. First Love 3:26
07. Johnny 3:47
08. Why Don't You Do It ? 3:32
09. The Girl From Ipanema 3:45
10. Bend Me, Shape Me (Bonus Track) 3:46
11. Friday On My Mind (Bonus Track) 4:03
12. Cigarillo (Bonus Track) 4:05
13. Take The Best Of Me (Bonus Track) 3:48

Back

Отчёт EAC

Exact Audio Copy V0.99 prebeta 5 from 4. May 2009
Отчёт EAC об извлечении, выполненном 27. июня 2010, 11:46
Gilla / Help! Help!
Дисковод: Optiarc DVD RW AD-5200A Adapter: 0 ID: 0
Режим чтения : Достоверность
Использование точного потока : Да
Отключение кэша аудио : Да
Использование указателей C2 : Нет
Коррекция смещения при чтении : 48
Способность читать области Lead-in и Lead-out : Нет
Заполнение пропущенных сэмплов тишиной : Да
Удаление блоков с тишиной в начале и конце : Нет
При вычислениях CRC использовались нулевые сэмплы : Да
Интерфейс : Встроенный Win32-интерфейс для Win NT/2000
Выходной формат : Внутренние WAV-операции
Формат сэмплов : 44.100 Гц; 16 бит; стерео
TOC извлечённого CD
Трек | Старт | Длительность | Начальный сектор | Конечный сектор
---------------------------------------------------------------------
1 | 0:00.00 | 3:08.59 | 0 | 14158
2 | 3:08.59 | 3:59.65 | 14159 | 32148
3 | 7:08.49 | 3:36.30 | 32149 | 48378
4 | 10:45.04 | 3:36.42 | 48379 | 64620
5 | 14:21.46 | 3:51.66 | 64621 | 82011
6 | 18:13.37 | 3:26.25 | 82012 | 97486
7 | 21:39.62 | 3:47.08 | 97487 | 114519
8 | 25:26.70 | 3:32.25 | 114520 | 130444
9 | 28:59.20 | 3:44.57 | 130445 | 147301
10 | 32:44.02 | 3:46.02 | 147302 | 164253
11 | 36:30.04 | 4:02.42 | 164254 | 182445
12 | 40:32.46 | 4:04.60 | 182446 | 200805
13 | 44:37.31 | 3:48.18 | 200806 | 217923
Характеристики диапазона извлечения и сообщения об ошибках
Выбранный диапазон
Имя файла D:\All\Music\Gilla - Help! Help!\Gilla - Help! Help!.wav
Пиковый уровень 96.6 %
Качество диапазона 100.0 %
CRC теста CFE505FE
CRC копии CFE505FE
Копирование... OK
Ошибок не произошло
AccurateRip: сводка
Трек 1 точность не определена (достоверность 2) [AA9669A6], AccurateRip вернул [1B6D208A]
Трек 2 точность не определена (достоверность 2) [84DAC723], AccurateRip вернул [1EEA6FF9]
Трек 3 точность не определена (достоверность 2) [CC45F8FB], AccurateRip вернул [CED85547]
Трек 4 точность не определена (достоверность 2) [14184BC6], AccurateRip вернул [1BA82032]
Трек 5 точность не определена (достоверность 2) [B03504BD], AccurateRip вернул [0FD62C31]
Трек 6 точность не определена (достоверность 2) [D27BA6B3], AccurateRip вернул [9A306161]
Трек 7 точность не определена (достоверность 2) [19DF06D6], AccurateRip вернул [D6BDAF62]
Трек 8 точность не определена (достоверность 2) [D889A29E], AccurateRip вернул [BEF9AE2A]
Трек 9 точность не определена (достоверность 2) [D98C5E04], AccurateRip вернул [8EA5EDA4]
Трек 10 точность не определена (достоверность 3) [17E5A3FC], AccurateRip вернул [D7534A46]
Трек 11 точность не определена (достоверность 2) [96503FB2], AccurateRip вернул [87F798FE]
Трек 12 точность не определена (достоверность 2) [01EAA2A5], AccurateRip вернул [849028EB]
Трек 13 точность не определена (достоверность 2) [91D731A0], AccurateRip вернул [0971EF22]
Ни один трек не прошёл проверки на точность
В вашей базе может быть иной вариант штамповки диска
Конец отчёта
[Торрент-статистика]
[Профиль]  [ЛС] 
Показать сообщения:    
Ответить на тему

Текущее время: Сегодня 23:18

Часовой пояс: GMT + 4



Вы не можете начинать темы
Вы не можете отвечать на сообщения
Вы не можете редактировать свои сообщения
Вы не можете удалять свои сообщения
Вы не можете голосовать в опросах
Вы не можете прикреплять файлы к сообщениям
Вы не можете скачивать файлы