Samantha Fox - Greatest Hits - 1992, (Eurodisco), FLAC (image + .cue), lossless

Ответить на тему
 
Автор
Сообщение

Admiral ®

Пол:

Стаж: 7 лет 2 месяца

Сообщений: 606

Репутация: 146 [+] [-]

Пост 06-Май-2014 09:35

[Цитировать] 

--Samantha Fox - Greatest Hits--
Страна: EU
Жанр: Eurodisco
Год выпуска: 1992
Формат: FLAC (image + .cue)
Битрейт аудио: lossless
Продолжительность: 01:07:28
Треклист
:
01.Touch Me (I Want Your Body) (3:47)
02.Do Ya Do Ya (Wanna Please Me) (3:49)
03.Nothing's Gonna Stop Me Now (3:45)
04.I Only Wanna Be With You (2:44)
05.I Surrender (To The Spirit Of The Night) (3:56)
06.I Wanna Have Some Fun (3:59)
07.Hold On Tight (3:40)
08.Just One Night (5:53)
09.Naughty Girls (Need Love Too) (3:23)
10.I Promise You (Get Ready) (3:52)
11.(I Can't Get No) Satisfaction (4:13)
12.Love House (3:37)
13.Another Woman (Too Many People) (3:58)
14.Spirit Of America (4:50)
15.Hot Lovin' (3:46)
16.Giving Me A Hard Time (2:49)
17.Even In The Darkest Hours (5:29)

Back

Отчёт EAC

Exact Audio Copy V0.99 prebeta 5 from 4. May 2009
Отчёт EAC об извлечении, выполненном 25. марта 2010, 3:41
Samantha Fox / Greatest Hits
Дисковод: ASUS DRW-2014S1T Adapter: 3 ID: 0
Режим чтения : Достоверность
Использование точного потока : Да
Отключение кэша аудио : Да
Использование указателей C2 : Нет
Коррекция смещения при чтении : 6
Способность читать области Lead-in и Lead-out : Нет
Заполнение пропущенных сэмплов тишиной : Да
Удаление блоков с тишиной в начале и конце : Нет
При вычислениях CRC использовались нулевые сэмплы : Да
Интерфейс : Установленный внешний ASPI-интерфейс
Выходной формат : Внутренние WAV-операции
Формат сэмплов : 44.100 Гц; 16 бит; стерео
TOC извлечённого CD
Трек | Старт | Длительность | Начальный сектор | Конечный сектор
---------------------------------------------------------------------
1 | 0:00.00 | 3:46.62 | 0 | 17011
2 | 3:46.62 | 3:48.68 | 17012 | 34179
3 | 7:35.55 | 3:45.22 | 34180 | 51076
4 | 11:21.02 | 2:43.38 | 51077 | 63339
5 | 14:04.40 | 3:55.65 | 63340 | 81029
6 | 18:00.30 | 3:58.40 | 81030 | 98919
7 | 21:58.70 | 3:39.55 | 98920 | 115399
8 | 25:38.50 | 5:53.10 | 115400 | 141884
9 | 31:31.60 | 3:23.25 | 141885 | 157134
10 | 34:55.10 | 3:52.22 | 157135 | 174556
11 | 38:47.32 | 4:12.48 | 174557 | 193504
12 | 43:00.05 | 3:37.10 | 193505 | 209789
13 | 46:37.15 | 3:58.20 | 209790 | 227659
14 | 50:35.35 | 4:49.42 | 227660 | 249376
15 | 55:25.02 | 3:45.65 | 249377 | 266316
16 | 59:10.67 | 2:48.50 | 266317 | 278966
17 | 61:59.42 | 5:28.38 | 278967 | 303604
Характеристики диапазона извлечения и сообщения об ошибках
Выбранный диапазон
Имя файла Z:\Temp\Samantha Fox - Greatest Hits.wav
Пиковый уровень 100.0 %
Качество диапазона 100.0 %
CRC теста 9C50F8A6
CRC копии 9C50F8A6
Копирование... OK
Ошибок не произошло
AccurateRip: сводка
Трек 1 нет в базе данных
Трек 2 нет в базе данных
Трек 3 нет в базе данных
Трек 4 нет в базе данных
Трек 5 нет в базе данных
Трек 6 нет в базе данных
Трек 7 нет в базе данных
Трек 8 нет в базе данных
Трек 9 нет в базе данных
Трек 10 нет в базе данных
Трек 11 нет в базе данных
Трек 12 нет в базе данных
Трек 13 нет в базе данных
Трек 14 нет в базе данных
Трек 15 нет в базе данных
Трек 16 нет в базе данных
Трек 17 нет в базе данных
Ни одного трека нет в базе AccurateRip
Конец отчёта
[Торрент-статистика]
[Профиль]  [ЛС] 
Показать сообщения:    
Ответить на тему

Текущее время: Сегодня 04:38

Часовой пояс: GMT + 4



Вы не можете начинать темы
Вы не можете отвечать на сообщения
Вы не можете редактировать свои сообщения
Вы не можете удалять свои сообщения
Вы не можете голосовать в опросах
Вы не можете прикреплять файлы к сообщениям
Вы не можете скачивать файлы