Boney M. - Oceans of Fantasy - 1994, (Disco) ,FLAC (image+.cue), lossless

Ответить на тему
 
Автор
Сообщение

Admiral ®

Пол:

Стаж: 7 лет 2 месяца

Сообщений: 606

Репутация: 146 [+] [-]

Пост 05-Май-2014 21:38

[Цитировать] 

--Boney M. - Oceans of Fantasy-- Жанр: Disco
Страна-производитель диска: Germany
Год издания: 1994
Дата выхода оригинального издания: 1979
Тип издания: CD, Album, Reissue
Издатель (лейбл): MCI
Номер по каталогу: 74321 21268 2
Страна: Germany
Аудиокодек: FLAC (*.flac)
Тип рипа: image+.cue
Битрейт аудио: lossless
Продолжительность: 00:52:03
Наличие сканов в содержимом раздачи: да, PNG 600dpi
Треклист:

01. Let It All Be Music [04:55]
02. Gotta Go Home [03:46]
03. Bye Bye Bluebird [04:50]
04. Bahama Mama [03:17]
05. Hold On! I'm Comin' [03:37]
06. Two of Us [03:16]
07. Ribbons of Blue [02:00]
08. Oceans of Fantasy [05:07]
09. El Lute [05:57]
10. No More Chain Again [05:24]
11. I'm Born Again [04:09]
12. No Time to Lose [02:56]
13. Calendar Song [02:41]

Отчёт EAC

Exact Audio Copy V1.0 beta 3 from 29. August 2011
Отчёт EAC об извлечении, выполненном 5. мая 2014, 19:52
Boney M. / Oceans of Fantasy (74321 21268 2)
Дисковод: PIONEER BD-RW BDR-206 Adapter: 0 ID: 0
Режим чтения : Достоверность
Использование точного потока : Да
Отключение кэша аудио : Да
Использование указателей C2 : Нет
Коррекция смещения при чтении : 667
Способность читать области Lead-in и Lead-out : Нет
Заполнение пропущенных сэмплов тишиной : Да
Удаление блоков с тишиной в начале и конце : Нет
При вычислениях CRC использовались нулевые сэмплы : Да
Интерфейс : Встроенный Win32-интерфейс для Win NT/2000
Выходной формат : Пользовательский кодировщик
Выбранный битрейт : 1024 kBit/s
Качество : Высокий
Добавление ID3-тега : Нет
Утилита сжатия : C:\Program Files (x86)\Exact Audio Copy\FLAC\FLAC.EXE
Дополнительные параметры : -T "COMMENT=Ripped by SergeyJD"-8 -V -T "ARTIST=%artist%" -T "TITLE=%title%" -T "ALBUM=%albumtitle%" -T "DATE=%year%" -T "TRACKNUMBER=%tracknr%" -T "GENRE=%genre%" -T "COMMENT=%comment%" -T "BAND=%albuminterpret%" -T "ALBUMARTIST=%albuminterpret%" -T "COMPOSER=%composer%" %haslyrics%--tag-from-file=LYRICS="%lyricsfile%"%haslyrics% -T "DISCNUMBER=%cdnumber%" -T "TOTALDISCS=%totalcds%" -T "TOTALTRACKS=%numtracks%" %hascover%--picture="%coverfile%"%hascover% %source% -o %dest%
TOC извлечённого CD
Трек | Старт | Длительность | Начальный сектор | Конечный сектор
---------------------------------------------------------------------
1 | 0:00.32 | 4:55.53 | 32 | 22209
2 | 4:56.10 | 3:46.57 | 22210 | 39216
3 | 8:42.67 | 4:50.68 | 39217 | 61034
4 | 13:33.60 | 3:17.70 | 61035 | 75879
5 | 16:51.55 | 3:37.42 | 75880 | 92196
6 | 20:29.22 | 3:16.63 | 92197 | 106959
7 | 23:46.10 | 2:00.20 | 106960 | 115979
8 | 25:46.30 | 5:07.52 | 115980 | 139056
9 | 30:54.07 | 5:57.33 | 139057 | 165864
10 | 36:51.40 | 5:24.40 | 165865 | 190204
11 | 42:16.05 | 4:09.55 | 190205 | 208934
12 | 46:25.60 | 2:56.65 | 208935 | 222199
13 | 49:22.50 | 2:41.57 | 222200 | 234331
Характеристики диапазона извлечения и сообщения об ошибках
Выбранный диапазон
Имя файла D:\РАЗДАЧИ!!!!\Boney M. - Oceans of Fantasy (MCI 74321 21268 2) - 1994\Boney M. - Oceans of Fantasy (74321 21268 2).wav
Пиковый уровень 99.0 %
Скорость извлечения 7.2 X
Качество диапазона 100.0 %
CRC теста C846CD83
CRC копии C846CD83
Копирование... OK
Ошибок не произошло
AccurateRip: сводка
Трек 1 : извлечено точно (доверие 11) [4E3F7FE0] (AR v2)
Трек 2 : извлечено точно (доверие 11) [1BF26524] (AR v2)
Трек 3 : извлечено точно (доверие 11) [39DA10EE] (AR v2)
Трек 4 : извлечено точно (доверие 11) [E2CD37B6] (AR v2)
Трек 5 : извлечено точно (доверие 11) [D999AEF9] (AR v2)
Трек 6 : извлечено точно (доверие 11) [9899621F] (AR v2)
Трек 7 : извлечено точно (доверие 11) [A2963300] (AR v2)
Трек 8 : извлечено точно (доверие 11) [301B5368] (AR v2)
Трек 9 : извлечено точно (доверие 11) [BA3E4BAD] (AR v2)
Трек 10 : извлечено точно (доверие 11) [37B488B9] (AR v2)
Трек 11 : извлечено точно (доверие 11) [A7010899] (AR v2)
Трек 12 : извлечено точно (доверие 11) [3132E2CA] (AR v2)
Трек 13 : извлечено точно (доверие 11) [13A27E50] (AR v2)
Все треки извлечены точно
Конец отчёта
---- CUETools DB Plugin V2.1.4
[CTDB TOCID: LRweVhACqrZSuTzY5hMZX0dhAZA-] found
Submit result: LRweVhACqrZSuTzY5hMZX0dhAZA- has been confirmed
Track | CTDB Status
1 | (3/3) Accurately ripped
2 | (3/3) Accurately ripped
3 | (3/3) Accurately ripped
4 | (3/3) Accurately ripped
5 | (3/3) Accurately ripped
6 | (3/3) Accurately ripped
7 | (3/3) Accurately ripped
8 | (3/3) Accurately ripped
9 | (3/3) Accurately ripped
10 | (3/3) Accurately ripped
11 | (3/3) Accurately ripped
12 | (3/3) Accurately ripped
13 | (3/3) Accurately ripped
==== Контрольная сумма отчёта 5A43492B4A6E44D0E6E3D1D0119E2C5AFDDD9802F3B7C3E3E2A56107EF604E7A ====

Cover

[Торрент-статистика]
[Профиль]  [ЛС] 
Показать сообщения:    
Ответить на тему

Текущее время: Сегодня 06:32

Часовой пояс: GMT + 4



Вы не можете начинать темы
Вы не можете отвечать на сообщения
Вы не можете редактировать свои сообщения
Вы не можете удалять свои сообщения
Вы не можете голосовать в опросах
Вы не можете прикреплять файлы к сообщениям
Вы не можете скачивать файлы