Boney M. - Nightflight To Venus - 1994, (Disco) ,FLAC (image+.cue), lossless

Ответить на тему
 
Автор
Сообщение

Admiral ®

Пол:

Стаж: 7 лет 2 месяца

Сообщений: 606

Репутация: 146 [+] [-]

Пост 05-Май-2014 21:36

[Цитировать] 

--Boney M. - Nightflight To Venus-- Жанр: Disco
Страна-производитель диска: Germany
Год издания: 1994
Дата выхода оригинального издания: 1978
Тип издания: CD, Album, Reissue
Издатель (лейбл): MCI
Номер по каталогу: 74321 21269 2
Страна: Germany
Аудиокодек: FLAC (*.flac)
Тип рипа: image+.cue
Битрейт аудио: lossless
Продолжительность: 00:44:54
Наличие сканов в содержимом раздачи: да, PNG 600dpi
Треклист:

01. Nightflight to Venus [04:47]
02. Rasputin [05:52]
03. Painter Man [03:11]
04. He Was a Steppenwolf [06:51]
05. King of the Road [02:37]
06. Rivers of Babylon [04:21]
07. Voodoonight [03:31]
08. Brown Girl in the Ring [04:02]
09. Never Change Lovers in the Middle of the Night [05:33]
10. Heart of Gold [04:05]

Отчёт EAC

Exact Audio Copy V1.0 beta 3 from 29. August 2011
Отчёт EAC об извлечении, выполненном 5. мая 2014, 19:27
Boney M. / Nightflight to Venus (74321 21269 2)
Дисковод: PIONEER BD-RW BDR-206 Adapter: 0 ID: 0
Режим чтения : Достоверность
Использование точного потока : Да
Отключение кэша аудио : Да
Использование указателей C2 : Нет
Коррекция смещения при чтении : 667
Способность читать области Lead-in и Lead-out : Нет
Заполнение пропущенных сэмплов тишиной : Да
Удаление блоков с тишиной в начале и конце : Нет
При вычислениях CRC использовались нулевые сэмплы : Да
Интерфейс : Встроенный Win32-интерфейс для Win NT/2000
Выходной формат : Пользовательский кодировщик
Выбранный битрейт : 1024 kBit/s
Качество : Высокий
Добавление ID3-тега : Нет
Утилита сжатия : C:\Program Files (x86)\Exact Audio Copy\FLAC\FLAC.EXE
Дополнительные параметры : -T "COMMENT=Ripped by SergeyJD"-8 -V -T "ARTIST=%artist%" -T "TITLE=%title%" -T "ALBUM=%albumtitle%" -T "DATE=%year%" -T "TRACKNUMBER=%tracknr%" -T "GENRE=%genre%" -T "COMMENT=%comment%" -T "BAND=%albuminterpret%" -T "ALBUMARTIST=%albuminterpret%" -T "COMPOSER=%composer%" %haslyrics%--tag-from-file=LYRICS="%lyricsfile%"%haslyrics% -T "DISCNUMBER=%cdnumber%" -T "TOTALDISCS=%totalcds%" -T "TOTALTRACKS=%numtracks%" %hascover%--picture="%coverfile%"%hascover% %source% -o %dest%
TOC извлечённого CD
Трек | Старт | Длительность | Начальный сектор | Конечный сектор
---------------------------------------------------------------------
1 | 0:00.32 | 4:47.18 | 32 | 21574
2 | 4:47.50 | 5:52.15 | 21575 | 47989
3 | 10:39.65 | 3:11.17 | 47990 | 62331
4 | 13:51.07 | 6:51.53 | 62332 | 93209
5 | 20:42.60 | 2:37.22 | 93210 | 105006
6 | 23:20.07 | 4:21.63 | 105007 | 124644
7 | 27:41.70 | 3:31.40 | 124645 | 140509
8 | 31:13.35 | 4:02.62 | 140510 | 158721
9 | 35:16.22 | 5:33.70 | 158722 | 183766
10 | 40:50.17 | 4:05.15 | 183767 | 202156
Характеристики диапазона извлечения и сообщения об ошибках
Выбранный диапазон
Имя файла D:\РАЗДАЧИ!!!!\Boney M. - Nightflight To Venus (MCI 74321 21269 2) - 1994\Boney M. - Nightflight to Venus (74321 21269 2).wav
Пиковый уровень 99.0 %
Скорость извлечения 7.0 X
Качество диапазона 100.0 %
CRC теста A778B5C9
CRC копии A778B5C9
Копирование... OK
Ошибок не произошло
AccurateRip: сводка
Трек 1 : извлечено точно (доверие 18) [9F916054] (AR v2)
Трек 2 : извлечено точно (доверие 18) [856C8056] (AR v2)
Трек 3 : извлечено точно (доверие 18) [AC846D14] (AR v2)
Трек 4 : извлечено точно (доверие 18) [33765F70] (AR v2)
Трек 5 : извлечено точно (доверие 18) [6EB33855] (AR v2)
Трек 6 : извлечено точно (доверие 18) [77AAD7BC] (AR v2)
Трек 7 : извлечено точно (доверие 18) [AF6F8157] (AR v2)
Трек 8 : извлечено точно (доверие 18) [ECEC50C1] (AR v2)
Трек 9 : извлечено точно (доверие 19) [2758FD24] (AR v2)
Трек 10 : извлечено точно (доверие 18) [A8CD1392] (AR v2)
Все треки извлечены точно
Конец отчёта
---- CUETools DB Plugin V2.1.4
[CTDB TOCID: TlhsCg0VofIKyPvqU4xJbmKG1Pc-] found
Submit result: TlhsCg0VofIKyPvqU4xJbmKG1Pc- has been confirmed
Track | CTDB Status
1 | (5/5) Accurately ripped
2 | (5/5) Accurately ripped
3 | (5/5) Accurately ripped
4 | (5/5) Accurately ripped
5 | (5/5) Accurately ripped
6 | (5/5) Accurately ripped
7 | (5/5) Accurately ripped
8 | (5/5) Accurately ripped
9 | (5/5) Accurately ripped
10 | (5/5) Accurately ripped
==== Контрольная сумма отчёта 753AF5F1A16E177C31D4050A9A39CD60BFB190EF7EED61A7313508958FB23E8B ====

Cover

[Торрент-статистика]
[Профиль]  [ЛС] 
Показать сообщения:    
Ответить на тему

Текущее время: Сегодня 21:22

Часовой пояс: GMT + 4



Вы не можете начинать темы
Вы не можете отвечать на сообщения
Вы не можете редактировать свои сообщения
Вы не можете удалять свои сообщения
Вы не можете голосовать в опросах
Вы не можете прикреплять файлы к сообщениям
Вы не можете скачивать файлы