Morten Harket - Brother - 2014 [CD], (Pop), APE (image+.cue), lossless

Ответить на тему
 
Автор
Сообщение

luis5 ®

Пол:

Стаж: 7 лет 4 месяца

Сообщений: 108

Репутация: 51 [+] [-]

Откуда: Кузбасс

Пост 05-Май-2014 17:34

[Цитировать] 

Morten Harket - Brother
Жанр: Pop
Год выпуска: 2014
Производитель Диска - Лейбл: Wrasse Records
Страна: Norway
Аудио кодек: APE
Тип рипа: image+.cue
Битрейт аудио: lossless
Продолжительность: 00:37:57
Описание: Британский лейбл Wrasse Records представляет шестой студийный альбом уникального вокалиста, бывшего участника легендарного норвежского трио A-HA. В 2009 году группа A-HA объявила о своем распаде. Финальная точка в истории группы была поставлена 4 декабря 2010 года, когда норвежцы отыграли свой заключительный концерт в Осло. Мортен Харкет занялся сольным творчеством. В 2012 году он выпускает свой пятый студийный альбом Out Of My Hands. К работе над созданием новой пластинки был привлечен шведский продюсер Питер Квинт (Peter Kvint), известным благодаря своей работе с Britney Spears, Natasha Bedingfield, Andreas Johnson, The Ark. Мортен Харкет уже сотрудничал с Питером во время создания альбома Out Of My Hands (вместе они написали три песни). Также в работе над «Brother» принял участие норвежский поэт Ole Sverre Morten, автор многих песен A-HA и сольных работ Мортена Харкета. Результат их совместного творчества - альбом «Brother», красивый, чувственный альбом о любви, человеческой природе и о различиях между нами.

Morten Harket - Brother (2014, lossless)

01. Brother
02. Do You Remember Me?
03. Safe With Me
04. Whispering Heart
05. Heaven Cast
06. There Is A Place
07. Oh What A Night
08. End Of The Line
09. Can’t Answer This
10. First Man To The Grave

LogEAC

Exact Audio Copy V0.99 prebeta 5 from 4. May 2009
EAC extraction logfile from 25. April 2014, 22:27
Morten Harket / Brother
Used drive : HL-DT-STDVDRAM GH22NS40 Adapter: 0 ID: 0
Read mode : Secure
Utilize accurate stream : Yes
Defeat audio cache : Yes
Make use of C2 pointers : No
Read offset correction : 667
Overread into Lead-In and Lead-Out : No
Fill up missing offset samples with silence : Yes
Delete leading and trailing silent blocks : No
Null samples used in CRC calculations : Yes
Used interface : Native Win32 interface for Win NT & 2000
Used output format : Internal WAV Routines
Sample format : 44.100 Hz; 16 Bit; Stereo
TOC of the extracted CD
Track | Start | Length | Start sector | End sector
---------------------------------------------------------
1 | 0:00.00 | 4:31.06 | 0 | 20330
2 | 4:31.06 | 4:04.31 | 20331 | 38661
3 | 8:35.37 | 3:27.63 | 38662 | 54249
4 | 12:03.25 | 3:56.74 | 54250 | 72023
5 | 16:00.24 | 4:07.32 | 72024 | 90580
6 | 20:07.56 | 3:15.38 | 90581 | 105243
7 | 23:23.19 | 3:41.69 | 105244 | 121887
8 | 27:05.13 | 3:36.42 | 121888 | 138129
9 | 30:41.55 | 3:36.34 | 138130 | 154363
10 | 34:18.14 | 3:39.07 | 154364 | 170795
Range status and errors
Selected range
Filename C:\Documents and Settings\Viktor\Desktop\Morten Harket - Brother (2014)\Morten Harket - Brother.wav
Peak level 100.0 %
Range quality 100.0 %
Test CRC 652A4C70
Copy CRC 652A4C70
Copy OK
No errors occurred
AccurateRip summary
Track 1 not present in database
Track 2 not present in database
Track 3 not present in database
Track 4 not present in database
Track 5 not present in database
Track 6 not present in database
Track 7 not present in database
Track 8 not present in database
Track 9 not present in database
Track 10 not present in database
None of the tracks are present in the AccurateRip database
End of status report
Morten Harket Brother - Official Video
[Торрент-статистика]
[Профиль]  [ЛС] 
Показать сообщения:    
Ответить на тему

Текущее время: Сегодня 07:06

Часовой пояс: GMT + 4



Вы не можете начинать темы
Вы не можете отвечать на сообщения
Вы не можете редактировать свои сообщения
Вы не можете удалять свои сообщения
Вы не можете голосовать в опросах
Вы не можете прикреплять файлы к сообщениям
Вы не можете скачивать файлы