Francesco Napoli - Balla … Balla - 1990, (Italo-Disco), FLAC (image+.cue), lossless

Ответить на тему
 
Автор
Сообщение

Admiral ®

Пол:

Стаж: 7 лет 2 месяца

Сообщений: 606

Репутация: 146 [+] [-]

Пост 03-Май-2014 07:52

[Цитировать] 

--Francesco Napoli - Balla … Balla-- Жанр: Italo-Disco
Год выпуска диска: 1990
Производитель диска: Germany - Karussell Music
Аудио кодек: FLAC
Тип рипа: image+.cue
Битрейт аудио: lossless
Продолжительность: 00:50:17
Трэклист:
01. Balla ... Balla 5:51
02. Stai Con Me 3:36
03. Marina 2:45
04. Viva La Vita 3:25
05. Reggea E Sole 2:45
06. Let Me Love You (Ti Amo) 4:01
07. I Love To Love 2:47
08. Luna Tu 3:34
09. Prima Notte 3:11
10. Mille Volte 2:17
11. Io Me Andro 3:47
12. Ciao Italia 3:44
13. Medley (Live) Azzuro-Volare 5:58
14. Amica Mia 2:38

Back

Отчёт EAC

Exact Audio Copy V0.99 prebeta 5 from 4. May 2009
Отчёт EAC об извлечении, выполненном 4. ноября 2009, 11:31
Francesco Napoli / Balla Balla
Дисковод: Optiarc DVD RW AD-5200A Adapter: 0 ID: 0
Режим чтения : Достоверность
Использование точного потока : Да
Отключение кэша аудио : Да
Использование указателей C2 : Нет
Коррекция смещения при чтении : 48
Способность читать области Lead-in и Lead-out : Нет
Заполнение пропущенных сэмплов тишиной : Да
Удаление блоков с тишиной в начале и конце : Нет
При вычислениях CRC использовались нулевые сэмплы : Да
Интерфейс : Установленный внешний ASPI-интерфейс
Выходной формат : Внутренние WAV-операции
Формат сэмплов : 44.100 Гц; 16 бит; стерео
TOC извлечённого CD
Трек | Старт | Длительность | Начальный сектор | Конечный сектор
---------------------------------------------------------------------
1 | 0:00.33 | 5:50.42 | 33 | 26324
2 | 5:51.00 | 3:35.53 | 26325 | 42502
3 | 9:26.53 | 2:44.45 | 42503 | 54847
4 | 12:11.23 | 3:24.45 | 54848 | 70192
5 | 15:35.68 | 2:45.30 | 70193 | 82597
6 | 18:21.23 | 4:00.60 | 82598 | 100657
7 | 22:22.08 | 2:46.62 | 100658 | 113169
8 | 25:08.70 | 3:33.38 | 113170 | 129182
9 | 28:42.33 | 3:11.15 | 129183 | 143522
10 | 31:53.48 | 2:17.05 | 143523 | 153802
11 | 34:10.53 | 3:47.12 | 153803 | 170839
12 | 37:57.65 | 3:43.55 | 170840 | 187619
13 | 41:41.45 | 5:58.13 | 187620 | 214482
14 | 47:39.58 | 2:37.62 | 214483 | 226319
Характеристики диапазона извлечения и сообщения об ошибках
Выбранный диапазон
Имя файла E:\Francesco Napoli - Balla Balla\Francesco Napoli - Balla Balla.wav
Пиковый уровень 88.6 %
Качество диапазона 100.0 %
CRC теста 5F038191
CRC копии 5F038191
Копирование... OK
Ошибок не произошло
AccurateRip: сводка
Трек 1 нет в базе данных
Трек 2 нет в базе данных
Трек 3 нет в базе данных
Трек 4 нет в базе данных
Трек 5 нет в базе данных
Трек 6 нет в базе данных
Трек 7 нет в базе данных
Трек 8 нет в базе данных
Трек 9 нет в базе данных
Трек 10 нет в базе данных
Трек 11 нет в базе данных
Трек 12 нет в базе данных
Трек 13 нет в базе данных
Трек 14 нет в базе данных
Ни одного трека нет в базе AccurateRip
Конец отчёта
[Торрент-статистика]
[Профиль]  [ЛС] 
Показать сообщения:    
Ответить на тему

Текущее время: Сегодня 20:07

Часовой пояс: GMT + 4



Вы не можете начинать темы
Вы не можете отвечать на сообщения
Вы не можете редактировать свои сообщения
Вы не можете удалять свои сообщения
Вы не можете голосовать в опросах
Вы не можете прикреплять файлы к сообщениям
Вы не можете скачивать файлы