VA - Вспомни и Танцуй! Vol.2 - 1998, (Italo Disco), FLAC (image+.cue), lossless

Ответить на тему
 
Автор
Сообщение

Admiral ®

Пол:

Стаж: 7 лет 2 месяца

Сообщений: 606

Репутация: 146 [+] [-]

Пост 25-Апр-2014 09:44

[Цитировать] 

--Various Artists - Вспомни и Танцуй! Vol.2-- Жанр: Italo Disco
Носитель: CD
Страна-производитель диска: Швеция/Россия
Год издания: 1998
Издатель (лейбл): SOYUZ UK LTD./SOYUZ MUSIC MARKETING GMBH.
Номер по каталогу: SZUK 0985-3
Аудиокодек: FLAC (*.flac)
Тип рипа: image+.cue
Битрейт аудио: lossless
Продолжительность: 01:02:34
Наличие сканов в содержимом раздачи: да
Треклист:
01. Linda Jo Rizzo - You`re My First, You`re My Last (05:39)
02. The Flirts - Helpless (You Took My Love) (07:44)
03. Ottawan - Crazy Music (03:21)
04. Stacey Q - Two Of Hearts (04:53)
05. Scotch - Plus Plus (05:00)
06. Waterfront Home - Rockin-Reggae-Rhythm (02:41)
07. Adam Lee - Fotonovela (03:39)
08. Ken Laszlo - 1.2.3.4.5.6.7.8. (05:19)
09. Cliff Turner - Moonlight Affair (06:15)
10. U.K. - Roadrunner (06:33)
11. Gazebo - Lunatic (04:34)
12. K.B. Caps - Julia (06:51)

Отчёт EAC

Exact Audio Copy V1.0 beta 3 from 29. August 2011
EAC extraction logfile from 19. January 2014, 2:59
Various Artists (Compilation) / Remember & Dance Vol.2
Used drive : Optiarc DVD RW AD-7203A Adapter: 1 ID: 0
Read mode : Secure
Utilize accurate stream : Yes
Defeat audio cache : Yes
Make use of C2 pointers : No
Read offset correction : 48
Overread into Lead-In and Lead-Out : No
Fill up missing offset samples with silence : Yes
Delete leading and trailing silent blocks : No
Null samples used in CRC calculations : Yes
Used interface : Native Win32 interface for Win NT & 2000
Used output format : User Defined Encoder
Selected bitrate : 128 kBit/s
Quality : High
Add ID3 tag : No
Command line compressor : G:\Program Files\Exact Audio Copy\Flac\flac.exe
Additional command line options : -V -8 -T "Date=%year%" -T "Genre=%genre%" %source%
TOC of the extracted CD
Track | Start | Length | Start sector | End sector
---------------------------------------------------------
1 | 0:00.10 | 5:39.60 | 10 | 25494
2 | 5:39.70 | 7:44.67 | 25495 | 60361
3 | 13:24.62 | 3:21.25 | 60362 | 75461
4 | 16:46.12 | 4:53.33 | 75462 | 97469
5 | 21:39.45 | 5:00.02 | 97470 | 119971
6 | 26:39.47 | 2:41.35 | 119972 | 132081
7 | 29:21.07 | 3:39.23 | 132082 | 148529
8 | 33:00.30 | 5:19.60 | 148530 | 172514
9 | 38:20.15 | 6:15.10 | 172515 | 200649
10 | 44:35.25 | 6:33.32 | 200650 | 230156
11 | 51:08.57 | 4:34.00 | 230157 | 250706
12 | 55:42.57 | 6:51.63 | 250707 | 281594
Range status and errors
Selected range
Filename H:\EAC-аудиорипы\Various Artists (Compilation) - Remember & Dance Vol.2.wav
Peak level 99.9 %
Extraction speed 3.5 X
Range quality 99.9 %
Test CRC 74ECBBF3
Copy CRC 74ECBBF3
Copy OK
No errors occurred
AccurateRip summary
Track 1 not present in database
Track 2 not present in database
Track 3 not present in database
Track 4 not present in database
Track 5 not present in database
Track 6 not present in database
Track 7 not present in database
Track 8 not present in database
Track 9 not present in database
Track 10 not present in database
Track 11 not present in database
Track 12 not present in database
None of the tracks are present in the AccurateRip database
End of status report
==== Log checksum 1D6392DD4AF59A74F523FBFAE524223B0F258386D993C1529A5C0A95EE5ED31A ====
[Торрент-статистика]
[Профиль]  [ЛС] 
Показать сообщения:    
Ответить на тему

Текущее время: Сегодня 02:23

Часовой пояс: GMT + 4



Вы не можете начинать темы
Вы не можете отвечать на сообщения
Вы не можете редактировать свои сообщения
Вы не можете удалять свои сообщения
Вы не можете голосовать в опросах
Вы не можете прикреплять файлы к сообщениям
Вы не можете скачивать файлы