Stacey Q - Better Than Heaven - 1986, (Euro-Disco/Hi-Nrg), FLAC (image+.cue), lossless

Ответить на тему
 
Автор
Сообщение

Admiral ®

Пол:

Стаж: 7 лет 2 месяца

Сообщений: 606

Репутация: 146 [+] [-]

Пост 18-Апр-2014 14:14

[Цитировать] 

--Stacey Q - Better Than Heaven-- Жанр: Euro-Disco/Hi-Nrg
Страна-производитель диска: US
Год издания диска: 1986
Издатель (лейбл): Atlantic
Номер по каталогу: 7 81676-2
Аудио кодек: FLAC (*.flac)
Тип рипа: image+.cue
Битрейт аудио: lossless
Продолжительность: 00:43:00
Наличие сканов в содержимом раздачи: да
Трэклист:
01. Two Of Hearts 7:14
02. We Connect 4:15
03. Insecurity 3:30
04. Better Than Heaven 3:31
05. Don't Let Me Down 3:54
06. Music Out Of Bounds 4:24
07. Love Or Desire 3:46
08. Don't Break My Heart 3:34
09. He Doesn't Understand 5:05
10. Dancing Nowhere 3:47

Back

Отчёт EAC

Exact Audio Copy V0.99 prebeta 5 from 4. May 2009
Отчёт EAC об извлечении, выполненном 14. ноября 2010, 0:33
Stacey Q / Better Than Heaven
Дисковод: Optiarc DVD RW AD-5200A Adapter: 0 ID: 0
Режим чтения : Достоверность
Использование точного потока : Да
Отключение кэша аудио : Да
Использование указателей C2 : Нет
Коррекция смещения при чтении : 48
Способность читать области Lead-in и Lead-out : Нет
Заполнение пропущенных сэмплов тишиной : Да
Удаление блоков с тишиной в начале и конце : Нет
При вычислениях CRC использовались нулевые сэмплы : Да
Интерфейс : Встроенный Win32-интерфейс для Win NT/2000
Выходной формат : Внутренние WAV-операции
Формат сэмплов : 44.100 Гц; 16 бит; стерео
TOC извлечённого CD
Трек | Старт | Длительность | Начальный сектор | Конечный сектор
---------------------------------------------------------------------
1 | 0:00.37 | 7:13.48 | 37 | 32559
2 | 7:14.10 | 4:15.22 | 32560 | 51706
3 | 11:29.32 | 3:30.33 | 51707 | 67489
4 | 14:59.65 | 3:30.72 | 67490 | 83311
5 | 18:30.62 | 3:54.00 | 83312 | 100861
6 | 22:24.62 | 4:24.20 | 100862 | 120681
7 | 26:49.07 | 3:46.35 | 120682 | 137666
8 | 30:35.42 | 3:33.63 | 137667 | 153704
9 | 34:09.30 | 5:05.05 | 153705 | 176584
10 | 39:14.35 | 3:46.57 | 176585 | 193591
Характеристики диапазона извлечения и сообщения об ошибках
Выбранный диапазон
Имя файла D:\All\Music\Stacey Q - Better Than Heaven\Stacey Q - Better Than Heaven.wav
Пиковый уровень 99.5 %
Качество диапазона 100.0 %
CRC теста 99DC279B
CRC копии 99DC279B
Копирование... OK
Ошибок не произошло
AccurateRip: сводка
Трек 1 точное извлечение (доверие 6) [8FD6EAA7]
Трек 2 точное извлечение (доверие 6) [F3B48E9B]
Трек 3 точное извлечение (доверие 6) [A997AF6F]
Трек 4 точное извлечение (доверие 6) [B2C8C7B0]
Трек 5 точное извлечение (доверие 6) [8AA0DA2F]
Трек 6 точное извлечение (доверие 6) [119D5D77]
Трек 7 точное извлечение (доверие 6) [D907046C]
Трек 8 точное извлечение (доверие 6) [F38D58F7]
Трек 9 точное извлечение (доверие 6) [A77DCEB4]
Трек 10 точное извлечение (доверие 6) [5ACF2700]
Все треки извлечены точно
Конец отчёта
[Торрент-статистика]
[Профиль]  [ЛС] 
Показать сообщения:    
Ответить на тему

Текущее время: Сегодня 07:27

Часовой пояс: GMT + 4



Вы не можете начинать темы
Вы не можете отвечать на сообщения
Вы не можете редактировать свои сообщения
Вы не можете удалять свои сообщения
Вы не можете голосовать в опросах
Вы не можете прикреплять файлы к сообщениям
Вы не можете скачивать файлы