Chilly - We Are The Popkings ... and Other Hits - 2011, (Electronic, Pop), APE (image+.cue), lossless

Ответить на тему
 
Автор
Сообщение

Admiral ®

Пол:

Стаж: 7 лет 2 месяца

Сообщений: 606

Репутация: 146 [+] [-]

Пост 13-Апр-2014 19:58

[Цитировать] 

--Chilly - We Are The Popkings ... And Other Hits (2011)-- Жанр: Electronic, Pop
Страна-производитель диска: Germany
Год издания диска: 2011/12 Aug
Издатель (лейбл): Polydor (Universal)
Номер по каталогу: 06025 2778864
Страна: W. Germany
Аудиокодек: APE (*.ape)
Тип рипа: image+.cue
Битрейт аудио: lossless
Продолжительность: 01:17:31
Наличие сканов в содержимом раздачи: да
Треклист:


1. Energy 2:00
2. We Are The Popkings 4:06
3. For Your Love (12" Version) 9:00
4. Get Up And Move 4:00
5. Johnny Loves Jenny 3:20
6. Brainstorming 3:50
7. Better Stop 3:40
8. Come To L.A. 3:29
9. Secret Lies 3:16
10. Rosi Rice 2:50
11. Heart Attack In My Cadillac 4:13
12. I Hear You Knocking 3:16
13. Sacrifice 3:54
14. Dance With Me 4:38
15. Sunshine Of Your Love 6:31
16. Come Let's Go 3:23
17. Key Of Love 3:07
18. Simply A Love Song 3:17
19.Oh, I Love You 3:01
20. Thank You 2:50

Отчёт EAC

Exact Audio Copy V1.0 beta 3 from 29. August 2011
Отчёт EAC об извлечении, выполненном 4. ноября 2011, 1:55
Chilly / We Are The Popkings ... And Other Hits
Дисковод: PLEXTOR CD-R PREMIUM2 Adapter: 0 ID: 0
Режим чтения : Достоверность
Использование точного потока : Да
Отключение кэша аудио : Да
Использование указателей C2 : Нет
Коррекция смещения при чтении : 30
Способность читать области Lead-in и Lead-out : Нет
Заполнение пропущенных сэмплов тишиной : Да
Удаление блоков с тишиной в начале и конце : Нет
При вычислениях CRC использовались нулевые сэмплы : Да
Интерфейс : Встроенный Win32-интерфейс для Win NT/2000
Выходной формат : Внутренние WAV-операции
Формат сэмплов : 44.100 Гц; 16 бит; стерео
TOC извлечённого CD
Трек | Старт | Длительность | Начальный сектор | Конечный сектор
---------------------------------------------------------------------
1 | 0:00.00 | 1:55.73 | 0 | 8697
2 | 1:55.73 | 4:03.58 | 8698 | 26980
3 | 5:59.56 | 9:02.28 | 26981 | 67658
4 | 15:02.09 | 4:00.29 | 67659 | 85687
5 | 19:02.38 | 3:21.28 | 85688 | 100790
6 | 22:23.66 | 3:49.13 | 100791 | 117978
7 | 26:13.04 | 3:39.45 | 117979 | 134448
8 | 29:52.49 | 3:29.36 | 134449 | 150159
9 | 33:22.10 | 3:15.14 | 150160 | 164798
10 | 36:37.24 | 2:48.68 | 164799 | 177466
11 | 39:26.17 | 4:12.17 | 177467 | 196383
12 | 43:38.34 | 3:16.34 | 196384 | 211117
13 | 46:54.68 | 3:54.00 | 211118 | 228667
14 | 50:48.68 | 4:36.59 | 228668 | 249426
15 | 55:25.52 | 6:30.21 | 249427 | 278697
16 | 61:55.73 | 3:21.50 | 278698 | 293822
17 | 65:17.48 | 3:06.48 | 293823 | 307820
18 | 68:24.21 | 3:15.69 | 307821 | 322514
19 | 71:40.15 | 3:01.73 | 322515 | 336162
20 | 74:42.13 | 2:49.47 | 336163 | 348884
Характеристики диапазона извлечения и сообщения об ошибках
Выбранный диапазон
Имя файла D:\Chilly - We Are The Popkigs...and other hits (Universal 06025 2778864)\Chilly - We Are The Popkings ... And Other Hits.wav
Пиковый уровень 99.9 %
Скорость извлечения 5.6 X
Качество диапазона 100.0 %
CRC теста 97DD400E
CRC копии 97DD400E
Копирование... OK
Ошибок не произошло
AccurateRip: сводка
Трек 1 отсутствует в базе данных
Трек 2 отсутствует в базе данных
Трек 3 отсутствует в базе данных
Трек 4 отсутствует в базе данных
Трек 5 отсутствует в базе данных
Трек 6 отсутствует в базе данных
Трек 7 отсутствует в базе данных
Трек 8 отсутствует в базе данных
Трек 9 отсутствует в базе данных
Трек 10 отсутствует в базе данных
Трек 11 отсутствует в базе данных
Трек 12 отсутствует в базе данных
Трек 13 отсутствует в базе данных
Трек 14 отсутствует в базе данных
Трек 15 отсутствует в базе данных
Трек 16 отсутствует в базе данных
Трек 17 отсутствует в базе данных
Трек 18 отсутствует в базе данных
Трек 19 отсутствует в базе данных
Трек 20 отсутствует в базе данных
Ни одного трека нет в базе AccurateRip
Конец отчёта

[Торрент-статистика]
[Профиль]  [ЛС] 
Показать сообщения:    
Ответить на тему

Текущее время: Сегодня 13:35

Часовой пояс: GMT + 4



Вы не можете начинать темы
Вы не можете отвечать на сообщения
Вы не можете редактировать свои сообщения
Вы не можете удалять свои сообщения
Вы не можете голосовать в опросах
Вы не можете прикреплять файлы к сообщениям
Вы не можете скачивать файлы