A La Carte - Greatest Hits - Hit Collection Vol.1 - 2004, (Disco), APE (image+.cue), lossless

Ответить на тему
 
Автор
Сообщение

Admiral ®

Пол:

Стаж: 7 лет 2 месяца

Сообщений: 606

Репутация: 146 [+] [-]

Пост 11-Апр-2014 17:20

[Цитировать] 

--A La Carte - Greatest Hits - Hit Collection Vol.1-- Жанр: Disco
Год выпуска диска: 2004
Производитель диска: Europe - Coconut Records
Аудио кодек: APE
Тип рипа: image+.cue
Битрейт аудио: lossless
Продолжительность: 01:00:33
Трэклист:
01. Doctor Doctor (Help Me Please) 4:06
02. When The Boys Come Home 4:07
03. Farewell Farewell To Caringford 3:42
04. Ring Me Honey 4:07
05. Red Indian Drums 4:01
06. Jimmy Gimme Reggae 3:02
07. River Blue 4:32
08. Viva Torero 3:57
09. Dong Dong Diki Diki Dong 2:59
10. Wanted (Jean Le Voleur) 3:47
11. You Get Me On The Run 3:21
12. Cubatao 3:48
13. Do Wah Diddy Diddy 3:40
14. Tennessee Waltz 4:05
15. Price Of Love 3:59
16. The Summer Sun Of Greece 3:21

Back

Отчет EAC

Exact Audio Copy V0.99 prebeta 5 from 4. May 2009
Отчёт EAC об извлечении, выполненном 11. сентября 2009, 23:47
A La Carte / Greatest Hits - Hit Collection Vol.1
Дисковод: Optiarc DVD RW AD-5200A Adapter: 0 ID: 0
Режим чтения : Достоверность
Использование точного потока : Да
Отключение кэша аудио : Да
Использование указателей C2 : Нет
Коррекция смещения при чтении : 48
Способность читать области Lead-in и Lead-out : Нет
Заполнение пропущенных сэмплов тишиной : Да
Удаление блоков с тишиной в начале и конце : Нет
При вычислениях CRC использовались нулевые сэмплы : Да
Интерфейс : Установленный внешний ASPI-интерфейс
Выходной формат : Внутренние WAV-операции
Формат сэмплов : 44.100 Гц; 16 бит; стерео
TOC извлечённого CD
Трек | Старт | Длительность | Начальный сектор | Конечный сектор
---------------------------------------------------------------------
1 | 0:00.00 | 4:05.68 | 0 | 18442
2 | 4:05.68 | 4:07.15 | 18443 | 36982
3 | 8:13.08 | 3:41.60 | 36983 | 53617
4 | 11:54.68 | 4:07.23 | 53618 | 72165
5 | 16:02.16 | 4:00.42 | 72166 | 90207
6 | 20:02.58 | 3:02.32 | 90208 | 103889
7 | 23:05.15 | 4:32.18 | 103890 | 124307
8 | 27:37.33 | 3:57.00 | 124308 | 142082
9 | 31:34.33 | 2:59.21 | 142083 | 155528
10 | 34:33.54 | 3:47.11 | 155529 | 172564
11 | 38:20.65 | 3:21.18 | 172565 | 187657
12 | 41:42.08 | 3:47.58 | 187658 | 204740
13 | 45:29.66 | 3:39.50 | 204741 | 221215
14 | 49:09.41 | 4:05.02 | 221216 | 239592
15 | 53:14.43 | 3:58.60 | 239593 | 257502
16 | 57:13.28 | 3:20.73 | 257503 | 272575
Характеристики диапазона извлечения и сообщения об ошибках
Выбранный диапазон
Имя файла E:\A La Carte - Greatest Hits - Hit Collection Vol.1\A La Carte - Greatest Hits - Hit Collection Vol.1.wav
Пиковый уровень 69.6 %
Качество диапазона 100.0 %
CRC теста 0CF0007F
CRC копии 0CF0007F
Копирование... OK
Ошибок не произошло
AccurateRip: сводка
Трек 1 нет в базе данных
Трек 2 нет в базе данных
Трек 3 нет в базе данных
Трек 4 нет в базе данных
Трек 5 нет в базе данных
Трек 6 нет в базе данных
Трек 7 нет в базе данных
Трек 8 нет в базе данных
Трек 9 нет в базе данных
Трек 10 нет в базе данных
Трек 11 нет в базе данных
Трек 12 нет в базе данных
Трек 13 нет в базе данных
Трек 14 нет в базе данных
Трек 15 нет в базе данных
Трек 16 нет в базе данных
Ни одного трека нет в базе AccurateRip
Конец отчёта
[Торрент-статистика]
[Профиль]  [ЛС] 
Показать сообщения:    
Ответить на тему

Текущее время: Сегодня 06:42

Часовой пояс: GMT + 4



Вы не можете начинать темы
Вы не можете отвечать на сообщения
Вы не можете редактировать свои сообщения
Вы не можете удалять свои сообщения
Вы не можете голосовать в опросах
Вы не можете прикреплять файлы к сообщениям
Вы не можете скачивать файлы