Mike Mareen - The Maxi-Singles Collection (ESonCD) - 2009, (Italo-Disco), APE (image+.cue), lossless

Ответить на тему
 
Автор
Сообщение

Admiral ®

Пол:

Стаж: 7 лет 2 месяца

Сообщений: 606

Репутация: 146 [+] [-]

Пост 05-Апр-2014 19:32

[Цитировать] 

--Mike Mareen - The Maxi-Singles Collection-- Жанр: Italo-Disco
Год выпуска диска: 2009
Производитель диска: Russia (ESonCD - ESCD 200901-2)
Аудио кодек: APE
Тип рипа: image+.cue
Битрейт аудио: lossless
Продолжительность: 01:19:46
Трэклист:
01. Agent Of Liberty (Nik Z.WC Remix) 4:56
02. Lady Ecstasy (Extended Version) 5:32
03. Love Spy (Night Mix) 8:40
04. Don't Talk To The Snake (Maxi Version) 7:58
05. Agent Of Liberty (Maxi Version) 8:47
06. Heavy Water (Maxi Version) 6:45
07. Dancing In The Dark (Bonus Remix) 5:40
08. Here I Am (Hammer Mix) 5:37
09. Double Trouble (Extended Version) 5:07
10. Double Dub 4:09
11. Agent Of Liberty (Instrumental) 6:49
12. Love Spy (Instrumental) 4:01
13. Right Into My Heart (Inner - Town Deep Houzz Mix) 5:41

Information

Back

Отчет EAC

Exact Audio Copy V0.99 prebeta 5 from 4. May 2009
Отчёт EAC об извлечении, выполненном 5. сентября 2009, 6:21
Mike Mareen / The Maxi-Singles Collection
Дисковод: Optiarc DVD RW AD-5200A Adapter: 0 ID: 0
Режим чтения : Достоверность
Использование точного потока : Да
Отключение кэша аудио : Да
Использование указателей C2 : Нет
Коррекция смещения при чтении : 48
Способность читать области Lead-in и Lead-out : Нет
Заполнение пропущенных сэмплов тишиной : Да
Удаление блоков с тишиной в начале и конце : Нет
При вычислениях CRC использовались нулевые сэмплы : Да
Интерфейс : Установленный внешний ASPI-интерфейс
Выходной формат : Внутренние WAV-операции
Формат сэмплов : 44.100 Гц; 16 бит; стерео
TOC извлечённого CD
Трек | Старт | Длительность | Начальный сектор | Конечный сектор
---------------------------------------------------------------------
1 | 0:00.00 | 4:56.25 | 0 | 22224
2 | 4:56.25 | 5:32.60 | 22225 | 47184
3 | 10:29.10 | 8:40.21 | 47185 | 86205
4 | 19:09.31 | 7:58.33 | 86206 | 122088
5 | 27:07.64 | 8:47.17 | 122089 | 161630
6 | 35:55.06 | 6:45.26 | 161631 | 192031
7 | 42:40.32 | 5:40.26 | 192032 | 217557
8 | 48:20.58 | 5:37.34 | 217558 | 242866
9 | 53:58.17 | 5:07.40 | 242867 | 265931
10 | 59:05.57 | 4:09.41 | 265932 | 284647
11 | 63:15.23 | 6:49.20 | 284648 | 315342
12 | 70:04.43 | 4:01.13 | 315343 | 333430
13 | 74:05.56 | 5:41.56 | 333431 | 359061
Характеристики диапазона извлечения и сообщения об ошибках
Выбранный диапазон
Имя файла E:\Mike Mareen - The Maxi-Singles Collection\Mike Mareen - The Maxi-Singles Collection.wav
Пиковый уровень 99.0 %
Качество диапазона 100.0 %
CRC теста 08686038
CRC копии 08686038
Копирование... OK
Ошибок не произошло
AccurateRip: сводка
Трек 1 точное извлечение (доверие 1) [290E4BD2]
Трек 2 точное извлечение (доверие 1) [E48059FF]
Трек 3 точное извлечение (доверие 1) [A3808023]
Трек 4 точное извлечение (доверие 1) [9CC81CB1]
Трек 5 точное извлечение (доверие 1) [998B3564]
Трек 6 точное извлечение (доверие 1) [E05865C4]
Трек 7 точное извлечение (доверие 1) [E6F25D0E]
Трек 8 точное извлечение (доверие 1) [F5782C89]
Трек 9 точное извлечение (доверие 1) [7945B98B]
Трек 10 точное извлечение (доверие 1) [95A1E44C]
Трек 11 точное извлечение (доверие 1) [1766DF8E]
Трек 12 точное извлечение (доверие 1) [66F76415]
Трек 13 точное извлечение (доверие 1) [7CE5AEFF]
Все треки извлечены точно
Конец отчёта
[Торрент-статистика]
[Профиль]  [ЛС] 
Показать сообщения:    
Ответить на тему

Текущее время: Сегодня 19:34

Часовой пояс: GMT + 4



Вы не можете начинать темы
Вы не можете отвечать на сообщения
Вы не можете редактировать свои сообщения
Вы не можете удалять свои сообщения
Вы не можете голосовать в опросах
Вы не можете прикреплять файлы к сообщениям
Вы не можете скачивать файлы