Mike Mareen - Let's Start Now - 1987, (Italo-Disco), FLAC (image+.cue), lossless

Ответить на тему
 
Автор
Сообщение

Admiral ®

Пол:

Стаж: 7 лет 2 месяца

Сообщений: 606

Репутация: 146 [+] [-]

Пост 05-Апр-2014 19:28

[Цитировать] 

--Mike Mareen - Let's Start Now-- Жанр: Italo-Disco
Год выпуска диска: 1987
Производитель диска: Germany - ZYX-Galaxis
Аудио кодек: FLAC
Тип рипа: image+.cue
Битрейт аудио: lossless
Продолжительность: 00:54:50
Трэклист:
01. Don't Talk To The Snake 8:00
02. Let's Start Now 7:26
03. Africa 5:38
04. Agent Of Liberty 4:24
05. Germany 5:46
06. Heavy Water 4:09
07. Stand Up 6:31
08. Don't Leave Me Now 5:50
09. Mike-Mareen-Powerplay-Mix 7:06

- 09.1. Agent Of Liberty
- 09.2. Love Spy
- 09.3. Dancing In The Dark

Back

Отчет EAC

Exact Audio Copy V0.99 prebeta 5 from 4. May 2009
Отчёт EAC об извлечении, выполненном 7. ноября 2009, 3:45
Mike Mareen / Let's Start Now
Дисковод: Optiarc DVD RW AD-5200A Adapter: 0 ID: 0
Режим чтения : Достоверность
Использование точного потока : Да
Отключение кэша аудио : Да
Использование указателей C2 : Нет
Коррекция смещения при чтении : 48
Способность читать области Lead-in и Lead-out : Нет
Заполнение пропущенных сэмплов тишиной : Да
Удаление блоков с тишиной в начале и конце : Нет
При вычислениях CRC использовались нулевые сэмплы : Да
Интерфейс : Установленный внешний ASPI-интерфейс
Выходной формат : Внутренние WAV-операции
Формат сэмплов : 44.100 Гц; 16 бит; стерео
TOC извлечённого CD
Трек | Старт | Длительность | Начальный сектор | Конечный сектор
---------------------------------------------------------------------
1 | 0:00.00 | 8:00.10 | 0 | 36009
2 | 8:00.10 | 7:25.67 | 36010 | 69451
3 | 15:26.02 | 5:38.33 | 69452 | 94834
4 | 21:04.35 | 4:24.25 | 94835 | 114659
5 | 25:28.60 | 5:46.37 | 114660 | 140646
6 | 31:15.22 | 4:08.45 | 140647 | 159291
7 | 35:23.67 | 6:30.58 | 159292 | 188599
8 | 41:54.50 | 5:49.50 | 188600 | 214824
9 | 47:44.25 | 7:06.30 | 214825 | 246804
Характеристики диапазона извлечения и сообщения об ошибках
Выбранный диапазон
Имя файла E:\Mike Mareen - Let's Start Now (ZYX-Galaxis)\Mike Mareen - Let's Start Now.wav
Пиковый уровень 100.0 %
Качество диапазона 100.0 %
CRC теста 666C18E4
CRC копии 666C18E4
Копирование... OK
Ошибок не произошло
AccurateRip: сводка
Трек 1 точное извлечение (доверие 5) [AABE9E06]
Трек 2 точное извлечение (доверие 5) [07C0F5C3]
Трек 3 точное извлечение (доверие 5) [7FD6DCDF]
Трек 4 точное извлечение (доверие 5) [D1F83D6B]
Трек 5 точное извлечение (доверие 5) [B8796803]
Трек 6 точное извлечение (доверие 5) [94ADC17B]
Трек 7 точное извлечение (доверие 5) [7398350A]
Трек 8 точное извлечение (доверие 5) [20E2D127]
Трек 9 точное извлечение (доверие 4) [1365F6E7]
Все треки извлечены точно
Конец отчёта
[Торрент-статистика]
[Профиль]  [ЛС] 
Показать сообщения:    
Ответить на тему

Текущее время: Сегодня 08:41

Часовой пояс: GMT + 4



Вы не можете начинать темы
Вы не можете отвечать на сообщения
Вы не можете редактировать свои сообщения
Вы не можете удалять свои сообщения
Вы не можете голосовать в опросах
Вы не можете прикреплять файлы к сообщениям
Вы не можете скачивать файлы