Mike Mareen - The Best Of Mike Mareen - 1998, (Italo-Disco), FLAC (image + .cue), lossless

Ответить на тему
 
Автор
Сообщение

Admiral ®

Пол:

Стаж: 7 лет 2 месяца

Сообщений: 606

Репутация: 146 [+] [-]

Пост 05-Апр-2014 19:25

[Цитировать] 

--Mike Mareen - The Best Of Mike Mareen-- Страна: Germany
Жанр: Italo-Disco
Год выпуска: 1998
Формат: FLAC (image + .cue)
Битрейт аудио: lossless
Продолжительность: 01:01:02
Треклист:

01.Love Spy (6:25)
02.Dancing In The Dark (5:36)
03.Agent Of Liberty (8:55)
04.Here I Am (Megatrain Mix) (7:28)
05.Cecilia (4:08)
06.Don't Talk To The Snake (8:01)
07.Let's Start Now (7:28)
08.Dancing In The Dark (DJ Shah Remix) (5:57)
09.Mike Mareen Powerplay Mix (7:05)

Back

Отчет EAC

Exact Audio Copy V0.99 prebeta 3 from 28. July 2007
Отчёт EAC об извлечении, выполненном 10. декабря 2007, 5:15
Mike Mareen / The Best Of Mike Mareen
Дисковод: PLEXTOR DVDR PX-716AL Adapter: 2 ID: 0
Режим чтения : Достоверность
Использование точного потока : Да
Отключение кэша аудио : Да
Использование указателей C2 : Нет
Коррекция смещения при чтении : 30
Способность читать области Lead-in и Lead-out : Нет
Заполнение пропущенных сэмплов тишиной : Да
Удаление блоков с тишиной в начале и конце : Нет
При вычислениях CRC использовались нулевые сэмплы : Да
Интерфейс : Встроенный Win32-интерфейс для Win NT/2000
Выходной формат : Внутренние WAV-операции
Формат сэмплов : 44.100 Гц; 16 бит; стерео
TOC извлечённого CD
Трек | Старт | Длительность | Начальный сектор | Конечный сектор
---------------------------------------------------------------------
1 | 0:00.00 | 6:24.43 | 0 | 28842
2 | 6:24.43 | 5:36.20 | 28843 | 54062
3 | 12:00.63 | 8:55.05 | 54063 | 94192
4 | 20:55.68 | 7:28.00 | 94193 | 127792
5 | 28:23.68 | 4:08.09 | 127793 | 146401
6 | 32:32.02 | 8:00.51 | 146402 | 182452
7 | 40:32.53 | 7:27.56 | 182453 | 216033
8 | 48:00.34 | 5:57.01 | 216034 | 242809
9 | 53:57.35 | 7:05.04 | 242810 | 274688
Характеристики диапазона извлечения и сообщения об ошибках
Выбранный диапазон
Имя файла Z:\Temp\Mike Mareen - The Best Of Mike Mareen\Mike Mareen - The Best Of Mike Mareen.wav
Пиковый уровень 99.7 %
Качество диапазона 100.0 %
CRC копии 40A87ADF
Копирование... OK
Ошибок не произошло
Конец отчёта
[Торрент-статистика]
[Профиль]  [ЛС] 
Показать сообщения:    
Ответить на тему

Текущее время: Сегодня 13:51

Часовой пояс: GMT + 4



Вы не можете начинать темы
Вы не можете отвечать на сообщения
Вы не можете редактировать свои сообщения
Вы не можете удалять свои сообщения
Вы не можете голосовать в опросах
Вы не можете прикреплять файлы к сообщениям
Вы не можете скачивать файлы