Ryan Paris - I Successi - 2000, (Italo-Disco), APE (image+.cue), lossless

Ответить на тему
 
Автор
Сообщение

Admiral ®

Пол:

Стаж: 7 лет 2 месяца

Сообщений: 606

Репутация: 146 [+] [-]

Пост 03-Апр-2014 17:34

[Цитировать] 

--Ryan Paris - I Successi-- Жанр: Italo-Disco
Год выпуска диска: 2000
Производитель диска:Italy - D.V.More Records
Аудио кодек: APE
Тип рипа: image+.cue
Битрейт аудио: lossless
Продолжительность: 00:43:27
Трэклист:
01. Dolce Vita 4:10
02. I Want To Love You Once Again 3:54
03. Fall In Love 3:41
04. It's My Life 3:31
05. Only For You 3:21
06. Babe 4:04
07. A Different Love 4:12
08. Sweet Night 2:44
09. Italian Style 3:43
10. Harry's Bar 3:16
11. And The Beat Goes On 3:38
12. Dolce Vita (Remix 2000) 3:14

Back

Отчёт EAC

Exact Audio Copy V0.99 prebeta 5 from 4. May 2009
Отчёт EAC об извлечении, выполненном 22. августа 2009, 17:30
Ryan Paris / I Successi
Дисковод: Optiarc DVD RW AD-5200A Adapter: 0 ID: 0
Режим чтения : Достоверность
Использование точного потока : Да
Отключение кэша аудио : Да
Использование указателей C2 : Нет
Коррекция смещения при чтении : 48
Способность читать области Lead-in и Lead-out : Нет
Заполнение пропущенных сэмплов тишиной : Да
Удаление блоков с тишиной в начале и конце : Нет
При вычислениях CRC использовались нулевые сэмплы : Да
Интерфейс : Установленный внешний ASPI-интерфейс
Выходной формат : Внутренние WAV-операции
Формат сэмплов : 44.100 Гц; 16 бит; стерео
TOC извлечённого CD
Трек | Старт | Длительность | Начальный сектор | Конечный сектор
---------------------------------------------------------------------
1 | 0:00.00 | 4:09.47 | 0 | 18721
2 | 4:09.47 | 3:53.40 | 18722 | 36236
3 | 8:03.12 | 3:41.18 | 36237 | 52829
4 | 11:44.30 | 3:31.12 | 52830 | 68666
5 | 15:15.42 | 3:20.45 | 68667 | 83711
6 | 18:36.12 | 4:04.03 | 83712 | 102014
7 | 22:40.15 | 4:12.22 | 102015 | 120936
8 | 26:52.37 | 2:44.33 | 120937 | 133269
9 | 29:36.70 | 3:42.50 | 133270 | 149969
10 | 33:19.45 | 3:16.22 | 149970 | 164691
11 | 36:35.67 | 3:38.15 | 164692 | 181056
12 | 40:14.07 | 3:13.60 | 181057 | 195591
Характеристики диапазона извлечения и сообщения об ошибках
Выбранный диапазон
Имя файла E:\0 Ryan Paris - I Successi\Ryan Paris - I Successi\Ryan Paris - I Successi.wav
Пиковый уровень 100.0 %
Качество диапазона 100.0 %
CRC теста 2A5A1265
CRC копии 2A5A1265
Копирование... OK
Ошибок не произошло
AccurateRip: сводка
Трек 1 нет в базе данных
Трек 2 нет в базе данных
Трек 3 нет в базе данных
Трек 4 нет в базе данных
Трек 5 нет в базе данных
Трек 6 нет в базе данных
Трек 7 нет в базе данных
Трек 8 нет в базе данных
Трек 9 нет в базе данных
Трек 10 нет в базе данных
Трек 11 нет в базе данных
Трек 12 нет в базе данных
Ни одного трека нет в базе AccurateRip
Конец отчёта
[Торрент-статистика]
[Профиль]  [ЛС] 
Показать сообщения:    
Ответить на тему

Текущее время: Сегодня 06:36

Часовой пояс: GMT + 4



Вы не можете начинать темы
Вы не можете отвечать на сообщения
Вы не можете редактировать свои сообщения
Вы не можете удалять свои сообщения
Вы не можете голосовать в опросах
Вы не можете прикреплять файлы к сообщениям
Вы не можете скачивать файлы