Savage - Tonight - 2008, (Italo-Disco), FLAC (image+.cue), lossless

Ответить на тему
 
Автор
Сообщение

Admiral ®

Пол:

Стаж: 7 лет 2 месяца

Сообщений: 606

Репутация: 146 [+] [-]

Пост 02-Апр-2014 14:41

[Цитировать] 

--Savage - Tonight-- Жанр: Italo Disco
Год выпуска диска: 2008
Производитель диска: Russia ESonCD 24 bit mastering from Vinil
Аудио кодек: FLAC
Тип рипа: image+.cue
Битрейт аудио: lossless
Продолжительность: 1:05:52.67

Трэклист:

CD: Savage - Tonight
ESonCD reissue of 1984

01. Radio [0:05:56.49]
02. A Love Again [0:04:31.34]
03. Fugitive [0:04:54.52]
04. Tonight [0:03:39.33]
05. Only You [0:04:41.20]
06. Turn Around [0:03:52.27]
07. Don't Cry Tonight [0:03:56.73]
08. Computerized Love [0:03:37.11]
09. A Love Again (Extended version) [0:05:26.37]
10. Fugitive (Remix) [0:06:44.09]
11. Only You (Extended version) [0:07:05.39]
12. Time (Extended version) [0:05:10.28]
13. Love Is Death (Extended version) [0:06:16.30]

Total: 1:05:52.67
2008 ESonCD 24 bit mastering from Vinil

back&disk

Отчёт EAC

Exact Audio Copy V0.99 prebeta 4 from 23. January 2008
Отчёт EAC об извлечении, выполненном 16. октября 2008, 0:03
Savage / Tonight
Дисковод: PLEXTOR DVDR PX-716A Adapter: 0 ID: 0
Режим чтения : Достоверность
Использование точного потока : Да
Отключение кэша аудио : Да
Использование указателей C2 : Нет
Коррекция смещения при чтении : 30
Способность читать области Lead-in и Lead-out : Нет
Заполнение пропущенных сэмплов тишиной : Да
Удаление блоков с тишиной в начале и конце : Нет
При вычислениях CRC использовались нулевые сэмплы : Да
Интерфейс : Встроенный Win32-интерфейс для Win NT/2000
Выходной формат : Пользовательский кодировщик
Выбранный битрейт : 128 kBit/s
Качество : Высокий
Добавление ID3-тэга : Нет
Утилита сжатия : C:\Program Files\FLAC\flac.exe
Дополнительные параметры : -8 -V -T "ARTIST=%a" -T "TITLE=%t" -T "ALBUM=%g" -T "DATE=%y" -T "TRACKNUMBER=%n" -T "GENRE=%m" -T "COMMENT=EAC FLAC -8" %s
TOC извлечённого CD
Трек | Старт | Длительность | Начальный сектор | Конечный сектор
---------------------------------------------------------------------
1 | 0:00.00 | 5:56.49 | 0 | 26748
2 | 5:56.49 | 4:31.34 | 26749 | 47107
3 | 10:28.08 | 4:54.52 | 47108 | 69209
4 | 15:22.60 | 3:39.33 | 69210 | 85667
5 | 19:02.18 | 4:41.20 | 85668 | 106762
6 | 23:43.38 | 3:52.27 | 106763 | 124189
7 | 27:35.65 | 3:56.73 | 124190 | 141962
8 | 31:32.63 | 3:37.11 | 141963 | 158248
9 | 35:09.74 | 5:26.37 | 158249 | 182735
10 | 40:36.36 | 6:44.09 | 182736 | 213044
11 | 47:20.45 | 7:05.39 | 213045 | 244958
12 | 54:26.09 | 5:10.28 | 244959 | 268236
13 | 59:36.37 | 6:16.30 | 268237 | 296466
Характеристики диапазона извлечения и сообщения об ошибках
Выбранный диапазон
Имя файла E:\Savage - Tonight.wav
Пиковый уровень 96.6 %
Качество диапазона 99.9 %
CRC теста 5514FF48
CRC копии 5514FF48
Копирование... OK
Ошибок не произошло
AccurateRip: сводка
Трек 1 нет в базе данных
Трек 2 нет в базе данных
Трек 3 нет в базе данных
Трек 4 нет в базе данных
Трек 5 нет в базе данных
Трек 6 нет в базе данных
Трек 7 нет в базе данных
Трек 8 нет в базе данных
Трек 9 нет в базе данных
Трек 10 нет в базе данных
Трек 11 нет в базе данных
Трек 12 нет в базе данных
Трек 13 нет в базе данных
Ни одного трека нет в базе AccurateRip
Конец отчёта
[Торрент-статистика]
[Профиль]  [ЛС] 
Показать сообщения:    
Ответить на тему

Текущее время: Сегодня 02:02

Часовой пояс: GMT + 4



Вы не можете начинать темы
Вы не можете отвечать на сообщения
Вы не можете редактировать свои сообщения
Вы не можете удалять свои сообщения
Вы не можете голосовать в опросах
Вы не можете прикреплять файлы к сообщениям
Вы не можете скачивать файлы