VA - Italo Disco Souvenirs Volume 1 - 2005, (Italo-Disco), APE (image+.cue), lossless

Ответить на тему
 
Автор
Сообщение

Admiral ®

Пол:

Стаж: 7 лет 2 месяца

Сообщений: 606

Репутация: 146 [+] [-]

Пост 02-Апр-2014 10:53

[Цитировать] 

--Various Artists - Italo Disco Souvenirs Volume 1-- Жанр: Italo-Disco
Год выпуска диска: 2005
Производитель диска: Netherlands - Mart Mix Music
Аудио кодек: APE
Тип рипа: image+.cue
Битрейт аудио: lossless
Продолжительность: 01:19:33
Трэклист:
01. Ken Scott - The Voice I Feel Inside 6:32
02. Claudio Mingardi - Forever Mine 5:22
03. Paolo Music - Disco Winter 6:08
04. Charley - I Can't Love 5:27
05. Edy Band - Sexy Lady 6:43
06. Lamby - Another Game 7:17
07. Sir Valentine- And I Love Her 5:22
08. Clay Pedrini- New Dream 6:23
09. Kriss - Hey Mister Mister 6:25
10. She Male - I Wanna Discover You 6:29
11. Karl Olivas - It's All Right 7:36
12. Various Artists - Megamix 9:45

Back

Отчёт EAC

Exact Audio Copy V0.99 prebeta 4 from 23. January 2008
Отчёт EAC об извлечении, выполненном 12. июля 2009, 13:27
Various / Italo Disco Souvenirs Volume 1
Дисковод: Optiarc DVD RW AD-5200A Adapter: 0 ID: 0
Режим чтения : Достоверность
Использование точного потока : Да
Отключение кэша аудио : Да
Использование указателей C2 : Нет
Коррекция смещения при чтении : 48
Способность читать области Lead-in и Lead-out : Нет
Заполнение пропущенных сэмплов тишиной : Да
Удаление блоков с тишиной в начале и конце : Нет
При вычислениях CRC использовались нулевые сэмплы : Да
Интерфейс : Установленный внешний ASPI-интерфейс
Выходной формат : Внутренние WAV-операции
Формат сэмплов : 44.100 Гц; 16 бит; стерео
TOC извлечённого CD
Трек | Старт | Длительность | Начальный сектор | Конечный сектор
---------------------------------------------------------------------
1 | 0:00.00 | 6:32.15 | 0 | 29414
2 | 6:32.15 | 5:22.29 | 29415 | 53593
3 | 11:54.44 | 6:08.14 | 53594 | 81207
4 | 18:02.58 | 5:27.31 | 81208 | 105763
5 | 23:30.14 | 6:43.00 | 105764 | 135988
6 | 30:13.14 | 7:17.17 | 135989 | 168780
7 | 37:30.31 | 5:22.14 | 168781 | 192944
8 | 42:52.45 | 6:23.37 | 192945 | 221706
9 | 49:16.07 | 6:25.69 | 221707 | 250650
10 | 55:42.01 | 6:29.74 | 250651 | 279899
11 | 62:12.00 | 7:36.40 | 279900 | 314139
12 | 69:48.40 | 9:45.02 | 314140 | 358016
Характеристики диапазона извлечения и сообщения об ошибках
Выбранный диапазон
Имя файла E:\ Projects\01 Various - Italo Disco Souvenirs Vol.1\Various - Italo Disco Souvenirs Vol.01\Various - Italo Disco Souvenirs Volume 1.wav
Пиковый уровень 95.9 %
Качество диапазона 100.0 %
CRC копии 9BEB5ED3
Копирование... OK
Ошибок не произошло
AccurateRip: сводка
Трек 1 нет в базе данных
Трек 2 нет в базе данных
Трек 3 нет в базе данных
Трек 4 нет в базе данных
Трек 5 нет в базе данных
Трек 6 нет в базе данных
Трек 7 нет в базе данных
Трек 8 нет в базе данных
Трек 9 нет в базе данных
Трек 10 нет в базе данных
Трек 11 нет в базе данных
Трек 12 нет в базе данных
Ни одного трека нет в базе AccurateRip
Конец отчёта
[Торрент-статистика]
[Профиль]  [ЛС] 
Показать сообщения:    
Ответить на тему

Текущее время: Сегодня 06:47

Часовой пояс: GMT + 4



Вы не можете начинать темы
Вы не можете отвечать на сообщения
Вы не можете редактировать свои сообщения
Вы не можете удалять свои сообщения
Вы не можете голосовать в опросах
Вы не можете прикреплять файлы к сообщениям
Вы не можете скачивать файлы