London Boys – The Twelve Commandments Of Dance - 1988, (Electronic, Pop, Disco), FLAC (image+.cue), lossless

Ответить на тему
 
Автор
Сообщение

Admiral ®

Пол:

Стаж: 7 лет 2 месяца

Сообщений: 606

Репутация: 146 [+] [-]

Пост 31-Мар-2014 22:07

[Цитировать] 

--London Boys – The Twelve Commandments Of Dance-- Жанр: Electronic, Pop, Disco
Страна-производитель диска: Japan
Год издания диска: 1988
Издатель (лейбл): King Records, Teldec
Номер по каталогу: K32Y 2129
Аудиокодек: FLAC (*.flac)
Тип рипа: image+.cue
Битрейт аудио: lossless
Наличие сканов в содержимом раздачи: да
Треклист:

1 Requiem 4:25
2 Kimbaley (My Ma-Mama Say) 4:19
3 Harlem Desire 3:50
4 Chinese Radio 3:51
5 Wichitah Woman 4:00
6 My Love 3:08
7 I'm Gonna Give My Heart 4:09
8 El Matinero 4:16
9 Dance Dance Dance 3:57
10 Helpless 3:56
11 Sandra 4:53
12 The Midi Dance 3:11

-------------------------------------------
Composed: Ralf René Maué
Producer: Ralf René Maué

Доп. информация:
[Edem Ephraim & Dennis Fuller] оба певца погибли в автокатастрофе 21 января 1996 года в Альпах.

Отчёт EAC

Exact Audio Copy V0.99 prebeta 5 from 4. May 2009
Отчёт EAC об извлечении, выполненном 14. июля 2011, 1:50
London Boys / The twelve commandments of dance
Дисковод: PLEXTOR CD-R PREMIUM2 Adapter: 0 ID: 0
Режим чтения : Достоверность
Использование точного потока : Да
Отключение кэша аудио : Да
Использование указателей C2 : Нет
Коррекция смещения при чтении : 30
Способность читать области Lead-in и Lead-out : Нет
Заполнение пропущенных сэмплов тишиной : Да
Удаление блоков с тишиной в начале и конце : Нет
При вычислениях CRC использовались нулевые сэмплы : Да
Интерфейс : Встроенный Win32-интерфейс для Win NT/2000
Выходной формат : Внутренние WAV-операции
Формат сэмплов : 44.100 Гц; 16 бит; стерео
TOC извлечённого CD
Трек | Старт | Длительность | Начальный сектор | Конечный сектор
---------------------------------------------------------------------
1 | 0:00.00 | 4:20.27 | 0 | 19526
2 | 4:20.27 | 4:17.30 | 19527 | 38831
3 | 8:37.57 | 3:48.48 | 38832 | 55979
4 | 12:26.30 | 3:49.35 | 55980 | 73189
5 | 16:15.65 | 3:57.72 | 73190 | 91036
6 | 20:13.62 | 3:06.55 | 91037 | 105041
7 | 23:20.42 | 4:08.68 | 105042 | 123709
8 | 27:29.35 | 4:14.10 | 123710 | 142769
9 | 31:43.45 | 3:56.25 | 142770 | 160494
10 | 35:39.70 | 3:53.05 | 160495 | 177974
11 | 39:33.00 | 4:51.35 | 177975 | 199834
12 | 44:24.35 | 3:14.15 | 199835 | 214399
Характеристики диапазона извлечения и сообщения об ошибках
Выбранный диапазон
Имя файла C:\London Boys - The twelve commandments of dance (Teldec K32Y 2129)\London Boys - The twelve commandments of dance.wav
Пиковый уровень 91.2 %
Качество диапазона 100.0 %
CRC теста D588454C
CRC копии D588454C
Копирование... OK
Ошибок не произошло
AccurateRip: сводка
Трек 1 точное извлечение (доверие 1) [5429659F]
Трек 2 нет в базе данных
Трек 3 точное извлечение (доверие 1) [AE489381]
Трек 4 нет в базе данных
Трек 5 нет в базе данных
Трек 6 нет в базе данных
Трек 7 точное извлечение (доверие 1) [CE8B2BFF]
Трек 8 нет в базе данных
Трек 9 нет в базе данных
Трек 10 нет в базе данных
Трек 11 нет в базе данных
Трек 12 нет в базе данных
3 трек(и) скопированы точно
9 трек(и) не содержатся в базе AccurateRip
Некоторые треки не прошли проверку на точность
Конец отчёта
[Торрент-статистика]
[Профиль]  [ЛС] 
Показать сообщения:    
Ответить на тему

Текущее время: Сегодня 09:37

Часовой пояс: GMT + 4



Вы не можете начинать темы
Вы не можете отвечать на сообщения
Вы не можете редактировать свои сообщения
Вы не можете удалять свои сообщения
Вы не можете голосовать в опросах
Вы не можете прикреплять файлы к сообщениям
Вы не можете скачивать файлы