VA - Best Of Comeback United (2CD) - 2004, (PopMusic), FLAC (image + .cue), lossless

Ответить на тему
 
Автор
Сообщение

Admiral ®

Пол:

Стаж: 7 лет 2 месяца

Сообщений: 606

Репутация: 146 [+] [-]

Пост 28-Мар-2014 16:25

[Цитировать] 

--Various Artists - Best Of Comeback United (2CD)-- Страна: Germany
Жанр: PopMusic
Год выпуска: 2004
Формат: FLAC (image + .cue)
Битрейт аудио: lossless
Продолжительность: 01:39:02
Треклист:

CD1: Greatest Hits

01. Chris Norman - Living Next Door To Alice (3:30)
02. Limahl - Neverending Story (3:43)
03. Emilia - Big Big World (3:25)
04. Caught In The Act (B.Boyce) - Love Is Everywhere (4:07)
05. Coolio - Gangsta's Paradise (4:03)
06. C.C.Catch - Heartbreak Hotel (3:29)
07. Haddaway - What Is Love (4:30)
08. Jazzy - Verpiss Dich (4:07)
09. Markus - Ich Will Spass (3:01)
10. Gunter Gabriel - Hey Boss, Ich Brauch' Mehr Geld (2:46)
11. Jurgen Drews - Ein Bett Im Kornfeld (3:01)
12. Weather Girls - It's Raining Men (3:30)

CD2: Best Of Show

01. Limahl - Can You Feel The Love Tonight (4:02)
02. Benjamin Boyce - Mandy (3:36)
03. Coolio - Rappers Delight (3:29)
04. Chris Norman - The First Cut Is The Deepest (3:49)
05. Emilia - All That She Wants (3:25)
06. Haddaway - Sexbomb (3:33)
07. C.C.Catch - Can't Get You Out Of My Head (3:51)
08. Markus - Konig Von Deutschland (2:46)
09. Weather Girls - I'm So Excited (3:41)
10. Jazzy - Hurra, Hurra, Die Schule Brennt (3:12)
11. Chris Norman & C.C.Catch - Stumblin' In (4:09)
12. Limahl & Dynelle - Don't Go Breaking My Heart (4:05)
13. Coolio & Emilia - Dilema (4:50)
14. Benjamin Boyce & Haddaway - Ebony & Ivory (3:44)
15. Comeback United - Survivor (3:39)
-
-

Back

Отчёт EAC CD1

Exact Audio Copy V0.99 prebeta 3 from 28. July 2007
Отчёт EAC об извлечении, выполненном 31. октября 2007, 21:56
Various / Best Of Comeback United CD1
Дисковод: PLEXTOR DVDR PX-716AL Adapter: 2 ID: 0
Режим чтения : Достоверность
Использование точного потока : Да
Отключение кэша аудио : Да
Использование указателей C2 : Нет
Коррекция смещения при чтении : 30
Способность читать области Lead-in и Lead-out : Нет
Заполнение пропущенных сэмплов тишиной : Да
Удаление блоков с тишиной в начале и конце : Нет
При вычислениях CRC использовались нулевые сэмплы : Да
Интерфейс : Встроенный Win32-интерфейс для Win NT/2000
Выходной формат : Внутренние WAV-операции
Формат сэмплов : 44.100 Гц; 16 бит; стерео
TOC извлечённого CD
Трек | Старт | Длительность | Начальный сектор | Конечный сектор
---------------------------------------------------------------------
1 | 0:00.00 | 3:29.74 | 0 | 15748
2 | 3:29.74 | 3:42.60 | 15749 | 32458
3 | 7:12.59 | 3:24.44 | 32459 | 47802
4 | 10:37.28 | 4:07.23 | 47803 | 66350
5 | 14:44.51 | 4:03.15 | 66351 | 84590
6 | 18:47.66 | 3:29.21 | 84591 | 100286
7 | 22:17.12 | 4:30.17 | 100287 | 120553
8 | 26:47.29 | 4:06.73 | 120554 | 139076
9 | 30:54.27 | 3:01.14 | 139077 | 152665
10 | 33:55.41 | 2:46.20 | 152666 | 165135
11 | 36:41.61 | 3:00.43 | 165136 | 178678
12 | 39:42.29 | 3:29.59 | 178679 | 194412
Характеристики диапазона извлечения и сообщения об ошибках
Выбранный диапазон
Имя файла Z:\Time\Temp\VA - Best Of Comeback United\VA - Best Of Comeback United CD1\Various - Best Of Comeback United CD1.wav
Пиковый уровень 100.0 %
Качество диапазона 99.9 %
CRC копии C0F048C1
Копирование... OK
Ошибок не произошло
Конец отчёта

Отчёт EAC CD2

Exact Audio Copy V0.99 prebeta 3 from 28. July 2007
Отчёт EAC об извлечении, выполненном 31. октября 2007, 22:40
Various / Best Of Comeback United CD2
Дисковод: PLEXTOR DVDR PX-716AL Adapter: 2 ID: 0
Режим чтения : Достоверность
Использование точного потока : Да
Отключение кэша аудио : Да
Использование указателей C2 : Нет
Коррекция смещения при чтении : 30
Способность читать области Lead-in и Lead-out : Нет
Заполнение пропущенных сэмплов тишиной : Да
Удаление блоков с тишиной в начале и конце : Нет
При вычислениях CRC использовались нулевые сэмплы : Да
Интерфейс : Встроенный Win32-интерфейс для Win NT/2000
Выходной формат : Внутренние WAV-операции
Формат сэмплов : 44.100 Гц; 16 бит; стерео
TOC извлечённого CD
Трек | Старт | Длительность | Начальный сектор | Конечный сектор
---------------------------------------------------------------------
1 | 0:00.00 | 4:02.07 | 0 | 18156
2 | 4:02.07 | 3:36.35 | 18157 | 34391
3 | 7:38.42 | 3:29.22 | 34392 | 50088
4 | 11:07.64 | 3:49.17 | 50089 | 67280
5 | 14:57.06 | 3:24.45 | 67281 | 82625
6 | 18:21.51 | 3:32.48 | 82626 | 98573
7 | 21:54.24 | 3:50.43 | 98574 | 115866
8 | 25:44.67 | 2:46.23 | 115867 | 128339
9 | 28:31.15 | 3:40.67 | 128340 | 144906
10 | 32:12.07 | 3:12.21 | 144907 | 159327
11 | 35:24.28 | 4:08.49 | 159328 | 177976
12 | 39:33.02 | 4:05.21 | 177977 | 196372
13 | 43:38.23 | 4:49.46 | 196373 | 218093
14 | 48:27.69 | 3:43.73 | 218094 | 234891
15 | 52:11.67 | 3:38.65 | 234892 | 251306
16 | 58:22.57 | 16:10.37 | 262707 | 335493
Характеристики диапазона извлечения и сообщения об ошибках
Выбранный диапазон
Имя файла Z:\Time\Temp\VA - Best Of Comeback United\VA - Best Of Comeback United CD2\Various - Best Of Comeback United CD2.wav
Пиковый уровень 100.0 %
Качество диапазона 99.9 %
CRC копии 11ACF36D
Копирование... OK
Ошибок не произошло
Конец отчёта
[Торрент-статистика]
[Профиль]  [ЛС] 
Показать сообщения:    
Ответить на тему

Текущее время: Сегодня 03:48

Часовой пояс: GMT + 4



Вы не можете начинать темы
Вы не можете отвечать на сообщения
Вы не можете редактировать свои сообщения
Вы не можете удалять свои сообщения
Вы не можете голосовать в опросах
Вы не можете прикреплять файлы к сообщениям
Вы не можете скачивать файлы