Laid Back - Happy Dreamer - 2005, (Disco/Synth-pop), FLAC (image + .cue), lossless

Ответить на тему
 
Автор
Сообщение

Admiral ®

Пол:

Стаж: 7 лет 2 месяца

Сообщений: 606

Репутация: 146 [+] [-]

Пост 24-Мар-2014 14:52

[Цитировать] 

--Laid Back - Happy Dreamer-- Страна: Germany
Жанр: Disco/Synth-pop
Год выпуска: 2005
Формат: FLAC (image + .cue)
Битрейт аудио: lossless
Продолжительность: 00:44:51
Треклист:


01. People 03:33
02. Universe Lovesong 03:45
03. Groovin' On A Feeling 03:42
04. Once 04:08
05. Never Too Late To Learn To Fly 04:50
06. Happy Dreamer 04:18
07. Whenever You Want Me 03:39
08. Didn't You Know 03:12
09. Slow Friday 05:41
10. Beautiful Day 03:48
11. Blue Lagoon 04:10

Back

Отчёт EAC

Exact Audio Copy V0.99 prebeta 4 from 23. January 2008
Отчёт EAC об извлечении, выполненном 10. июля 2008, 4:32
Laid Back / Happy Dreamer
Дисковод: PLEXTOR DVDR PX-810UF Adapter: 2 ID: 0
Режим чтения : Достоверность
Использование точного потока : Да
Отключение кэша аудио : Да
Использование указателей C2 : Нет
Коррекция смещения при чтении : 667
Способность читать области Lead-in и Lead-out : Нет
Заполнение пропущенных сэмплов тишиной : Да
Удаление блоков с тишиной в начале и конце : Нет
При вычислениях CRC использовались нулевые сэмплы : Нет
Интерфейс : Встроенный Win32-интерфейс для Win NT/2000
Выходной формат : Внутренние WAV-операции
Формат сэмплов : 44.100 Гц; 16 бит; стерео
TOC извлечённого CD
Трек | Старт | Длительность | Начальный сектор | Конечный сектор
---------------------------------------------------------------------
1 | 0:00.00 | 3:33.67 | 0 | 16041
2 | 3:33.67 | 3:45.41 | 16042 | 32957
3 | 7:19.33 | 3:42.26 | 32958 | 49633
4 | 11:01.59 | 4:08.42 | 49634 | 68275
5 | 15:10.26 | 4:50.47 | 68276 | 90072
6 | 20:00.73 | 4:18.38 | 90073 | 109460
7 | 24:19.36 | 3:39.34 | 109461 | 125919
8 | 27:58.70 | 3:12.12 | 125920 | 140331
9 | 31:11.07 | 5:41.37 | 140332 | 165943
10 | 36:52.44 | 3:48.22 | 165944 | 183065
11 | 40:40.66 | 4:10.16 | 183066 | 201831
12 | 47:23.07 | 32:04.68 | 213232 | 357599
Характеристики диапазона извлечения и сообщения об ошибках
Выбранный диапазон
Имя файла Z:\Temp\Laid Back - Happy Dreamer.wav
Пиковый уровень 97.7 %
Качество диапазона 99.9 %
CRC теста F4B0FE2C
CRC копии F4B0FE2C
Копирование... OK
Ошибок не произошло
AccurateRip: сводка
Трек 1 точное извлечение (доверие 3) [C92FD40A]
Трек 2 нет в базе данных
Трек 3 нет в базе данных
Трек 4 нет в базе данных
Трек 5 нет в базе данных
Трек 6 нет в базе данных
Трек 7 нет в базе данных
Трек 8 нет в базе данных
Трек 9 нет в базе данных
Трек 10 точное извлечение (доверие 2) [3B660795]
Трек 11 точное извлечение (доверие 2) [44A3660B]
3 трек(и) скопированы точно
8 трек(и) не содержатся в базе AccurateRip
Некоторые треки не прошли проверку на точность
Конец отчёта

[Торрент-статистика]
[Профиль]  [ЛС] 
Показать сообщения:    
Ответить на тему

Текущее время: Сегодня 17:49

Часовой пояс: GMT + 4



Вы не можете начинать темы
Вы не можете отвечать на сообщения
Вы не можете редактировать свои сообщения
Вы не можете удалять свои сообщения
Вы не можете голосовать в опросах
Вы не можете прикреплять файлы к сообщениям
Вы не можете скачивать файлы