Laid Back - Keep Smiling - 1983, (Disco/Synth-pop), FLAC (image+.cue), lossless

Ответить на тему
 
Автор
Сообщение

Admiral ®

Пол:

Стаж: 7 лет 2 месяца

Сообщений: 606

Репутация: 146 [+] [-]

Пост 24-Мар-2014 14:50

[Цитировать] 

--Laid Back - Keep Smiling-- Жанр: Disco/Synth-pop
Год выпуска диска: 1983
Производитель диска: Denmark
Аудио кодек: FLAC
Тип рипа: image+.cue
Битрейт аудио: lossless
Продолжительность: 00:38:58
Треклист:


01. Elevator Boy 04:55
02. Slowmotion Girl 05:51
03. White Horse 03:55
04. So Wie Go 04:32
05. High Society Girl 03:34
06. Don't Be Mean 03:21
07. Sunshine Reggae 04:17
08. Fly Away / Walking In The Sunshine 08:29

Back

Отчёт EAC

Exact Audio Copy V0.99 prebeta 4 from 23. January 2008
Отчёт EAC об извлечении, выполненном 10. июля 2008, 3:53
Laid Back / Keep Smiling
Дисковод: PLEXTOR DVDR PX-810UF Adapter: 2 ID: 0
Режим чтения : Достоверность
Использование точного потока : Да
Отключение кэша аудио : Да
Использование указателей C2 : Нет
Коррекция смещения при чтении : 667
Способность читать области Lead-in и Lead-out : Нет
Заполнение пропущенных сэмплов тишиной : Да
Удаление блоков с тишиной в начале и конце : Нет
При вычислениях CRC использовались нулевые сэмплы : Нет
Интерфейс : Встроенный Win32-интерфейс для Win NT/2000
Выходной формат : Внутренние WAV-операции
Формат сэмплов : 44.100 Гц; 16 бит; стерео
TOC извлечённого CD
Трек | Старт | Длительность | Начальный сектор | Конечный сектор
---------------------------------------------------------------------
1 | 0:00.00 | 4:55.00 | 0 | 22124
2 | 4:55.00 | 5:51.35 | 22125 | 48484
3 | 10:46.35 | 3:55.60 | 48485 | 66169
4 | 14:42.20 | 4:32.25 | 66170 | 86594
5 | 19:14.45 | 3:34.68 | 86595 | 102712
6 | 22:49.38 | 3:21.62 | 102713 | 117849
7 | 26:11.25 | 4:17.25 | 117850 | 137149
8 | 30:28.50 | 8:29.50 | 137150 | 175374
Характеристики диапазона извлечения и сообщения об ошибках
Выбранный диапазон
Имя файла Z:\Temp\Laid Back - Keep Smiling.wav
Пиковый уровень 100.0 %
Качество диапазона 99.9 %
CRC теста 34FCBAAE
CRC копии 34FCBAAE
Копирование... OK
Ошибок не произошло
AccurateRip: сводка
Трек 1 точность не определена (достоверность 1) [717BB0F5], AccurateRip вернул [172705DD]
Трек 2 точность не определена (достоверность 1) [DE9A8BEA], AccurateRip вернул [B1BA4043]
Трек 3 точность не определена (достоверность 1) [308E565D], AccurateRip вернул [94EEE884]
Трек 4 точность не определена (достоверность 1) [CE35DD4D], AccurateRip вернул [85CB8348]
Трек 5 точность не определена (достоверность 1) [9E369E98], AccurateRip вернул [A48A24F1]
Трек 6 точность не определена (достоверность 1) [3165BBBD], AccurateRip вернул [B3B7122C]
Трек 7 точность не определена (достоверность 1) [A8E23FA5], AccurateRip вернул [692C5C7C]
Трек 8 точность не определена (достоверность 1) [68A1D1B6], AccurateRip вернул [3C8EF34E]
Ни один трек не прошёл проверки на точность
В вашей базе может быть иной вариант штамповки диска
Конец отчёта
[Торрент-статистика]
[Профиль]  [ЛС] 
Показать сообщения:    
Ответить на тему

Текущее время: Сегодня 00:20

Часовой пояс: GMT + 4



Вы не можете начинать темы
Вы не можете отвечать на сообщения
Вы не можете редактировать свои сообщения
Вы не можете удалять свои сообщения
Вы не можете голосовать в опросах
Вы не можете прикреплять файлы к сообщениям
Вы не можете скачивать файлы