Sheree - Ronnie Talk To Russia 2002 (Bootleg) - 2002, (EuroDisco), FLAC (image+.cue), lossless

Ответить на тему
 
Автор
Сообщение

Admiral ®

Пол:

Стаж: 7 лет 2 месяца

Сообщений: 606

Репутация: 146 [+] [-]

Пост 24-Мар-2014 14:44

[Цитировать] 

--Sheree - Ronnie Talk To Russia 2002 (Bootleg)-- Жанр: EuroDisco
Год выпуска диска: 2002
Производитель диска: Poland
Аудио кодек: FLAC
Тип рипа: image+.cue
Битрейт аудио: lossless
Продолжительность: 00:29:54
Треклист:

01. Ronnie Talk To Russia (Dance 2002 Edit) (3:50)
02. Ronnie Talk To Russia (Dance 2002 Extended Version) (6:01)
03. Ronnie Talk To Russia (Retro Club Re-Cut) (7:18)
04. Ronnie Talk To Russia (12'' Glasnost Remix) (5:38)
05. Ronnie Talk To Russia (Instrumental Version) (3:41)
06. Ronnie Talk To Russia (7'' Version) (3:35)

Отчёт EAC

Exact Audio Copy V0.99 prebeta 5 from 4. May 2009
Отчёт EAC об извлечении, выполненном 2. октября 2009, 19:10
Sheree / Ronnie Talk To Russia 2002
Дисковод: ASUS DRW-2014S1T Adapter: 1 ID: 0
Режим чтения : Достоверность
Использование точного потока : Да
Отключение кэша аудио : Да
Использование указателей C2 : Нет
Коррекция смещения при чтении : 6
Способность читать области Lead-in и Lead-out : Нет
Заполнение пропущенных сэмплов тишиной : Да
Удаление блоков с тишиной в начале и конце : Нет
При вычислениях CRC использовались нулевые сэмплы : Да
Интерфейс : Установленный внешний ASPI-интерфейс
Выходной формат : Внутренние WAV-операции
Формат сэмплов : 44.100 Гц; 16 бит; стерео
TOC извлечённого CD
Трек | Старт | Длительность | Начальный сектор | Конечный сектор
---------------------------------------------------------------------
1 | 0:00.00 | 3:50.26 | 0 | 17275
2 | 3:50.26 | 6:01.04 | 17276 | 44354
3 | 9:51.30 | 7:18.06 | 44355 | 77210
4 | 17:09.36 | 5:38.35 | 77211 | 102595
5 | 22:47.71 | 3:40.72 | 102596 | 119167
6 | 26:28.68 | 3:35.30 | 119168 | 135322
Характеристики диапазона извлечения и сообщения об ошибках
Выбранный диапазон
Имя файла Z:\Temp\Sheree - Ronnie Talk To Russia 2002.wav
Пиковый уровень 98.3 %
Качество диапазона 100.0 %
CRC теста 7D88F6DA
CRC копии 7D88F6DA
Копирование... OK
Ошибок не произошло
AccurateRip: сводка
Трек 1 нет в базе данных
Трек 2 нет в базе данных
Трек 3 нет в базе данных
Трек 4 нет в базе данных
Трек 5 нет в базе данных
Трек 6 нет в базе данных
Ни одного трека нет в базе AccurateRip
Конец отчёта

Cover

Music and lyrics by Dieter Bohlen.
[Торрент-статистика]
[Профиль]  [ЛС] 
Показать сообщения:    
Ответить на тему

Текущее время: Сегодня 03:35

Часовой пояс: GMT + 4



Вы не можете начинать темы
Вы не можете отвечать на сообщения
Вы не можете редактировать свои сообщения
Вы не можете удалять свои сообщения
Вы не можете голосовать в опросах
Вы не можете прикреплять файлы к сообщениям
Вы не можете скачивать файлы