Ottawan - D.I.S.C.O. - 1998, (Disco), APE (image+.cue), lossless

Ответить на тему
 
Автор
Сообщение

Admiral ®

Пол:

Стаж: 7 лет 2 месяца

Сообщений: 606

Репутация: 146 [+] [-]

Пост 24-Мар-2014 10:46

[Цитировать] 

--Ottawan - D.I.S.C.O.-- Жанр: Disco
Год выпуска диска: 1998
Производитель диска: Europe - Delta Music
Аудио кодек: APE
Тип рипа: image+.cue
Битрейт аудио: lossless
Продолжительность: 00:59:05
Трэклист:
01. D.I.S.C.O. (English Maxi Version) 5:01
02. You're O.K. 5:15
03. Hands Up (Give Me Your Heart) 4:53
04. Crazy Music (Maxi Version) 5:31
05. Shalala Song 3:42
06. Comme Aux U.S.A. 4:53
07. A.I.E. Is My Song 3:29
08. Shubidube Love 2:50
09. Doudou Rumba 3:33
10. Hello Rio 4:28
11. Help, Get Me Some Help 4:26
12. Sing Along With The Juke-Box 4:01
13. D.I.S.C.O. (French Maxi Version) 7:04

Information

Back

Отчет EAC

Exact Audio Copy V0.99 prebeta 5 from 4. May 2009
Отчёт EAC об извлечении, выполненном 18. сентября 2009, 23:53
Ottawan / D.I.S.C.O.
Дисковод: Optiarc DVD RW AD-5200A Adapter: 0 ID: 0
Режим чтения : Достоверность
Использование точного потока : Да
Отключение кэша аудио : Да
Использование указателей C2 : Нет
Коррекция смещения при чтении : 48
Способность читать области Lead-in и Lead-out : Нет
Заполнение пропущенных сэмплов тишиной : Да
Удаление блоков с тишиной в начале и конце : Нет
При вычислениях CRC использовались нулевые сэмплы : Да
Интерфейс : Установленный внешний ASPI-интерфейс
Выходной формат : Внутренние WAV-операции
Формат сэмплов : 44.100 Гц; 16 бит; стерео
TOC извлечённого CD
Трек | Старт | Длительность | Начальный сектор | Конечный сектор
---------------------------------------------------------------------
1 | 0:00.00 | 5:00.42 | 0 | 22541
2 | 5:00.42 | 5:14.43 | 22542 | 46134
3 | 10:15.10 | 4:52.42 | 46135 | 68076
4 | 15:07.52 | 5:31.18 | 68077 | 92919
5 | 20:38.70 | 3:41.70 | 92920 | 109564
6 | 24:20.65 | 4:52.45 | 109565 | 131509
7 | 29:13.35 | 3:29.20 | 131510 | 147204
8 | 32:42.55 | 2:50.05 | 147205 | 159959
9 | 35:32.60 | 3:33.22 | 159960 | 175956
10 | 39:06.07 | 4:27.48 | 175957 | 196029
11 | 43:33.55 | 4:26.37 | 196030 | 216016
12 | 48:00.17 | 4:00.70 | 216017 | 234086
13 | 52:01.12 | 7:03.63 | 234087 | 265874
Характеристики диапазона извлечения и сообщения об ошибках
Выбранный диапазон
Имя файла E:\Ottawan - D.I.S.C.O\Ottawan - D.I.S.C.O..wav
Пиковый уровень 98.4 %
Качество диапазона 100.0 %
CRC теста 4A33C242
CRC копии 4A33C242
Копирование... OK
Ошибок не произошло
AccurateRip: сводка
Трек 1 точное извлечение (доверие 4) [974153A9]
Трек 2 точное извлечение (доверие 4) [2A229CA5]
Трек 3 точное извлечение (доверие 4) [D02682BC]
Трек 4 точное извлечение (доверие 4) [973AE1B7]
Трек 5 точное извлечение (доверие 4) [CEA005AE]
Трек 6 точное извлечение (доверие 4) [0D272AEE]
Трек 7 точное извлечение (доверие 4) [47FF390C]
Трек 8 точное извлечение (доверие 4) [39D050D9]
Трек 9 точное извлечение (доверие 4) [4F15E615]
Трек 10 точное извлечение (доверие 4) [0043C2C6]
Трек 11 точное извлечение (доверие 4) [8768CCAE]
Трек 12 точное извлечение (доверие 4) [E2FC9E55]
Трек 13 точное извлечение (доверие 3) [1F433D31]
Все треки извлечены точно
Конец отчёта
[Торрент-статистика]
[Профиль]  [ЛС] 
Показать сообщения:    
Ответить на тему

Текущее время: Сегодня 21:29

Часовой пояс: GMT + 4



Вы не можете начинать темы
Вы не можете отвечать на сообщения
Вы не можете редактировать свои сообщения
Вы не можете удалять свои сообщения
Вы не можете голосовать в опросах
Вы не можете прикреплять файлы к сообщениям
Вы не можете скачивать файлы