Silent Circle - No. 1 - 2001, (Eurodisco), FLAC (image + .cue), lossless

Ответить на тему
 
Автор
Сообщение

Admiral ®

Пол:

Стаж: 7 лет 2 месяца

Сообщений: 606

Репутация: 146 [+] [-]

Пост 22-Мар-2014 12:29

[Цитировать] 

--Silent Circle - No. 1--
Жанр: EuroDisco
Год выпуска диска: 2001
Производитель диска: Germany
Аудио кодек: FLAC
Тип рипа: image+.cue
Битрейт аудио: lossless
Продолжительность: 00:43:08
Треклист:

01.Touch In The Night (5:20)
02.Sib Dab Dua (3:06)
03.Dreams (4:03)
04.Hide Away - Man Is Comin'! (3:44)
05.Shy Girl (3:39)
06.Stop The Rain In The Night (3:41)
07.For You (1:33)
08.Give Me Time (3:59)
09.Moonlight Affair (3:31)
10.Anywhere Tonight (3:20)
11.Love Is Just A Word (3:22)
12.Touch In The Night '99 (3:51)

Back

Отчёт EAC

Exact Audio Copy V0.99 prebeta 5 from 4. May 2009
Отчёт EAC об извлечении, выполненном 26. февраля 2010, 19:36
Silent Circle / No. 1
Дисковод: ASUS DRW-2014S1T Adapter: 3 ID: 0
Режим чтения : Достоверность
Использование точного потока : Да
Отключение кэша аудио : Да
Использование указателей C2 : Нет
Коррекция смещения при чтении : 6
Способность читать области Lead-in и Lead-out : Нет
Заполнение пропущенных сэмплов тишиной : Да
Удаление блоков с тишиной в начале и конце : Нет
При вычислениях CRC использовались нулевые сэмплы : Да
Интерфейс : Установленный внешний ASPI-интерфейс
Выходной формат : Внутренние WAV-операции
Формат сэмплов : 44.100 Гц; 16 бит; стерео
TOC извлечённого CD
Трек | Старт | Длительность | Начальный сектор | Конечный сектор
---------------------------------------------------------------------
1 | 0:00.00 | 5:19.63 | 0 | 23987
2 | 5:19.63 | 3:05.65 | 23988 | 37927
3 | 8:25.53 | 4:02.40 | 37928 | 56117
4 | 12:28.18 | 3:44.29 | 56118 | 72946
5 | 16:12.47 | 3:38.47 | 72947 | 89343
6 | 19:51.19 | 3:40.74 | 89344 | 105917
7 | 23:32.18 | 1:33.04 | 105918 | 112896
8 | 25:05.22 | 3:59.18 | 112897 | 130839
9 | 29:04.40 | 3:31.19 | 130840 | 146683
10 | 32:35.59 | 3:20.00 | 146684 | 161683
11 | 35:55.59 | 3:21.72 | 161684 | 176830
12 | 39:17.56 | 3:51.13 | 176831 | 194168
Характеристики диапазона извлечения и сообщения об ошибках
Выбранный диапазон
Имя файла Z:\Temp\Silent Circle - No. 1.wav
Пиковый уровень 100.0 %
Качество диапазона 100.0 %
CRC теста 0A7BF906
CRC копии 0A7BF906
Копирование... OK
Ошибок не произошло
AccurateRip: сводка
Трек 1 нет в базе данных
Трек 2 точное извлечение (доверие 2) [F0181704]
Трек 3 точное извлечение (доверие 2) [BE897F93]
Трек 4 точное извлечение (доверие 2) [8202AF9A]
Трек 5 точное извлечение (доверие 2) [1C3CC38B]
Трек 6 точное извлечение (доверие 2) [3DD65672]
Трек 7 точное извлечение (доверие 2) [8589906A]
Трек 8 точное извлечение (доверие 2) [A920570B]
Трек 9 точное извлечение (доверие 2) [3FE3A110]
Трек 10 точное извлечение (доверие 2) [A5E56492]
Трек 11 точное извлечение (доверие 2) [1FC6B0DB]
Трек 12 точное извлечение (доверие 2) [53119127]
11 трек(и) скопированы точно
1 трек(и) не содержатся в базе AccurateRip
Некоторые треки не прошли проверку на точность
Конец отчёта
[Торрент-статистика]
[Профиль]  [ЛС] 
Показать сообщения:    
Ответить на тему

Текущее время: Сегодня 03:24

Часовой пояс: GMT + 4



Вы не можете начинать темы
Вы не можете отвечать на сообщения
Вы не можете редактировать свои сообщения
Вы не можете удалять свои сообщения
Вы не можете голосовать в опросах
Вы не можете прикреплять файлы к сообщениям
Вы не можете скачивать файлы