Silent Circle - DJ Special Mega Mix (Maxi CD) - 1994, (Disco/Dance), FLAC (image + .cue), lossless

Ответить на тему
 
Автор
Сообщение

Admiral ®

Пол:

Стаж: 7 лет 2 месяца

Сообщений: 606

Репутация: 146 [+] [-]

Пост 22-Мар-2014 12:10

[Цитировать] 

--Silent Circle - DJ Special Mega Mix (Maxi CD)-- Страна: Germany
Жанр: Disco/Dance
Год выпуска: 1994
Формат: FLAC (image + .cue)
Битрейт аудио: lossless
Продолжительность: 00:15:38
Треклист:
-01.DJ Special Mega Mix (Part I) (6:23)
02.Hit Mix (TV Version) (3:11)
03.DJ Special Mega Mix (Part II) (6:05)

Back

Отчет EAC

Exact Audio Copy V0.99 prebeta 3 from 28. July 2007
Отчёт EAC об извлечении, выполненном 21. января 2008, 4:31
Silent Circle / DJ Special Mega Mix
Дисковод: PLEXTOR DVDR PX-716AL Adapter: 2 ID: 0
Режим чтения : Достоверность
Использование точного потока : Да
Отключение кэша аудио : Да
Использование указателей C2 : Нет
Коррекция смещения при чтении : 30
Способность читать области Lead-in и Lead-out : Нет
Заполнение пропущенных сэмплов тишиной : Да
Удаление блоков с тишиной в начале и конце : Нет
При вычислениях CRC использовались нулевые сэмплы : Нет
Интерфейс : Встроенный Win32-интерфейс для Win NT/2000
Выходной формат : Внутренние WAV-операции
Формат сэмплов : 44.100 Гц; 16 бит; стерео
TOC извлечённого CD
Трек | Старт | Длительность | Начальный сектор | Конечный сектор
---------------------------------------------------------------------
1 | 0:00.00 | 6:22.73 | 0 | 28722
2 | 6:22.73 | 3:11.00 | 28723 | 43047
3 | 9:33.73 | 6:04.40 | 43048 | 70387
Характеристики диапазона извлечения и сообщения об ошибках
Выбранный диапазон
Имя файла Z:\Temp\Silent Circle - DJ Special Mega Mix\Silent Circle - DJ Special Mega Mix.wav
Пиковый уровень 99.0 %
Качество диапазона 100.0 %
CRC копии B1E4E412
Копирование... OK
Ошибок не произошло
Конец отчёта
[Торрент-статистика]
[Профиль]  [ЛС] 
Показать сообщения:    
Ответить на тему

Текущее время: Сегодня 08:00

Часовой пояс: GMT + 4



Вы не можете начинать темы
Вы не можете отвечать на сообщения
Вы не можете редактировать свои сообщения
Вы не можете удалять свои сообщения
Вы не можете голосовать в опросах
Вы не можете прикреплять файлы к сообщениям
Вы не можете скачивать файлы