Genghis Khan (Dschinghis Khan) - Greatest Hits (Japan) - 1992, (Disco), FLAC (image+.cue), lossless

Ответить на тему
 
Автор
Сообщение

Admiral ®

Пол:

Стаж: 7 лет 2 месяца

Сообщений: 606

Репутация: 146 [+] [-]

Пост 22-Мар-2014 11:58

[Цитировать] 

--Genghis Khan (Dschinghis Khan) - Greatest Hits (Japan)-- Жанр: PopMusic/Disco
Год издания диска: 1992
Издатель (лейбл): Made in Japan Victor Music Al Industries Inc.
Номер по каталогу: VICP-5219
Аудио кодек: FLAC (*.flac)
Тип рипа: image+.cue
Битрейт аудио: lossless
Продолжительность: 1:04:06:86
Наличие сканов в содержимом раздачи: да
Треклист:
CD: Genghis Khan - Greatest Hits
YEAR: 1992
01. Machu Picchu [0:04:06.24]
02. Hadschi Halef Omar [0:03:50.80]
03. Madagaskar [0:04:42.29]
04. Kaspar Hauser [0:04:49.10]
05. Mann Und Frau [0:04:19.36]
06. Die Fremden [0:05:01.20]
07. Moskau [0:04:33.80]
08. Rom [0:05:56.57]
09. Kontiki [0:03:56.80]
10. Tiger, Tiger [0:04:50.33]
11. Kapt'n Nemo [0:05:26.60]
12. Sierra Nevada [0:04:41.89]
13. Samurai [0:04:45.64]
14. Dschinghis Khan [0:03:06.22]
Total: 1:04:06:86

back&disc

Отчёт EAC

Exact Audio Copy V1.0 beta 1 from 15. November 2010
EAC extraction logfile from 17. September 2011, 1:17
Genghis Khan / Greatest Hits
Used drive : PLEXTOR DVDR PX-716A Adapter: 0 ID: 0
Read mode : Secure
Utilize accurate stream : Yes
Defeat audio cache : Yes
Make use of C2 pointers : No
Read offset correction : 30
Overread into Lead-In and Lead-Out : Yes
Fill up missing offset samples with silence : Yes
Delete leading and trailing silent blocks : No
Null samples used in CRC calculations : Yes
Used interface : Native Win32 interface for Win NT & 2000
Used output format : User Defined Encoder
Selected bitrate : 1024 kBit/s
Quality : High
Add ID3 tag : No
Command line compressor : C:\Program Files (x86)\FLAC\flac.exe
Additional command line options : -8 -V -T "ARTIST=%a" -T "TITLE=%t" -T "ALBUM=%g" -T "DATE=%y" -T "TRACKNUMBER=%n" -T "GENRE=%m" -T "COMMENT=EAC FLAC -8" %s
TOC of the extracted CD
Track | Start | Length | Start sector | End sector
---------------------------------------------------------
1 | 0:00.37 | 4:06.18 | 37 | 18504
2 | 4:06.55 | 3:50.60 | 18505 | 35814
3 | 7:57.40 | 4:42.22 | 35815 | 56986
4 | 12:39.62 | 4:49.08 | 56987 | 78669
5 | 17:28.70 | 4:19.27 | 78670 | 98121
6 | 21:48.22 | 5:01.15 | 98122 | 120711
7 | 26:49.37 | 4:33.60 | 120712 | 141246
8 | 31:23.22 | 5:56.43 | 141247 | 167989
9 | 37:19.65 | 3:56.60 | 167990 | 185749
10 | 41:16.50 | 4:50.25 | 185750 | 207524
11 | 46:07.00 | 5:26.45 | 207525 | 232019
12 | 51:33.45 | 4:41.67 | 232020 | 253161
13 | 56:15.37 | 4:45.48 | 253162 | 274584
14 | 61:01.10 | 3:06.17 | 274585 | 288551
Range status and errors
Selected range
Filename E:\mtorrent_flac\Genghis Khan - Greatest Hits (Japan)\Genghis Khan - Greatest Hits.wav
Peak level 100.0 %
Extraction speed 0.0 X
Range quality 100.0 %
Test CRC F205F678
Copy CRC F205F678
Copy OK
No errors occurred
AccurateRip summary
Track 1 not present in database
Track 2 not present in database
Track 3 not present in database
Track 4 not present in database
Track 5 not present in database
Track 6 not present in database
Track 7 not present in database
Track 8 not present in database
Track 9 not present in database
Track 10 not present in database
Track 11 not present in database
Track 12 not present in database
Track 13 not present in database
Track 14 not present in database
None of the tracks are present in the AccurateRip database
End of status report
[Торрент-статистика]
[Профиль]  [ЛС] 
Показать сообщения:    
Ответить на тему

Текущее время: Сегодня 05:47

Часовой пояс: GMT + 4



Вы не можете начинать темы
Вы не можете отвечать на сообщения
Вы не можете редактировать свои сообщения
Вы не можете удалять свои сообщения
Вы не можете голосовать в опросах
Вы не можете прикреплять файлы к сообщениям
Вы не можете скачивать файлы