Dschinghis Khan - Corrida - 1983, (Disco), FLAC (image+.cue), lossless

Ответить на тему
 
Автор
Сообщение

Admiral ®

Пол:

Стаж: 7 лет 2 месяца

Сообщений: 606

Репутация: 146 [+] [-]

Пост 21-Мар-2014 21:46

[Цитировать] 

--Dschinghis Khan - Corrida
-- Жанр: Disco
Страна-производитель диска: SONY DADC in Austria
Год издания диска: 1995
Издатель (лейбл): RDM / Jupiter Records
Номер по каталогу: CDRDM 509096
Страна: Germany
Аудиокодек: FLAC (*.flac)
Тип рипа: image+.cue
Битрейт аудио: lossless
Продолжительность: 00:50:21
Наличие сканов в содержимом раздачи: да
Треклист:

01. La Corrida (Opening) [00:01:43]
02. Oh Miguel [00:03:29]
03. Miguel Traum [00:03:50]
04. Eine Rose Fur Maria Magdalena [00:04:08]
05. Auf Der Strasse Nach Madrid [00:04:37]
06. Los Gitanos [00:04:21]
07. Juanita Elena [00:04:02]
08. Life Is Good - Life Is Scheen [00:03:52]
09. Einst Wird Kommen Der Tag [00:03:58]
10. El Diablo [00:02:52]
11. Dir Darf Nichts Gescheh'n Miguel [00:03:46]
12. Einzug In Die Plaza De Torros [00:01:45]
13. Corrida [00:03:34]
14. Ole Ole [00:04:18]

Отчёт EAC

Exact Audio Copy V0.99 prebeta 5 from 4. May 2009
Отчёт EAC об извлечении, выполненном 13. августа 2011, 16:00
Dschinghis Khan / Corrida
Дисковод: Optiarc DVD RW AD-7203A Adapter: 1 ID: 0
Режим чтения : Достоверность
Использование точного потока : Да
Отключение кэша аудио : Да
Использование указателей C2 : Нет
Коррекция смещения при чтении : 48
Способность читать области Lead-in и Lead-out : Нет
Заполнение пропущенных сэмплов тишиной : Да
Удаление блоков с тишиной в начале и конце : Нет
При вычислениях CRC использовались нулевые сэмплы : Да
Интерфейс : Встроенный Win32-интерфейс для Win NT/2000
Выходной формат : Пользовательский кодировщик
Выбранный битрейт : 1024 kBit/s
Качество : Высокий
Добавление ID3-тэга : Нет
Утилита сжатия : C:\Program Files\Exact Audio Copy\Flac\flac.exe
Дополнительные параметры : -8 -V -T "ARTIST=%a" -T "TITLE=%t" -T "ALBUM=%g" -T "DATE=%y" -T "TRACKNUMBER=%n" -T "GENRE=%m" -T "COMMENT=EAC FLAC -8" %s
TOC извлечённого CD
Трек | Старт | Длительность | Начальный сектор | Конечный сектор
---------------------------------------------------------------------
1 | 0:00.00 | 1:43.35 | 0 | 7759
2 | 1:43.35 | 3:29.45 | 7760 | 23479
3 | 5:13.05 | 3:50.54 | 23480 | 40783
4 | 9:03.59 | 4:08.32 | 40784 | 59415
5 | 13:12.16 | 4:37.61 | 59416 | 80251
6 | 17:50.02 | 4:21.57 | 80252 | 99883
7 | 22:11.59 | 4:02.22 | 99884 | 118055
8 | 26:14.06 | 3:52.00 | 118056 | 135455
9 | 30:06.06 | 3:58.02 | 135456 | 153307
10 | 34:04.08 | 2:52.24 | 153308 | 166231
11 | 36:56.32 | 3:46.18 | 166232 | 183199
12 | 40:42.50 | 1:45.73 | 183200 | 191147
13 | 42:28.48 | 3:34.42 | 191148 | 207239
14 | 46:03.15 | 4:18.39 | 207240 | 226628
Характеристики диапазона извлечения и сообщения об ошибках
Выбранный диапазон
Имя файла C:\Documents and Settings\Astrolight\Мои документы\Моя музыка\Dschinghis Khan - Corrida.wav
Пиковый уровень 100.0 %
Качество диапазона 100.0 %
CRC теста 4D0894B0
CRC копии 4D0894B0
Копирование... OK
Ошибок не произошло
AccurateRip: сводка
Трек 1 нет в базе данных
Трек 2 нет в базе данных
Трек 3 нет в базе данных
Трек 4 нет в базе данных
Трек 5 нет в базе данных
Трек 6 нет в базе данных
Трек 7 нет в базе данных
Трек 8 нет в базе данных
Трек 9 нет в базе данных
Трек 10 нет в базе данных
Трек 11 нет в базе данных
Трек 12 нет в базе данных
Трек 13 нет в базе данных
Трек 14 нет в базе данных
Ни одного трека нет в базе AccurateRip
Конец отчёта
[Торрент-статистика]
[Профиль]  [ЛС] 
Показать сообщения:    
Ответить на тему

Текущее время: Сегодня 05:40

Часовой пояс: GMT + 4



Вы не можете начинать темы
Вы не можете отвечать на сообщения
Вы не можете редактировать свои сообщения
Вы не можете удалять свои сообщения
Вы не можете голосовать в опросах
Вы не можете прикреплять файлы к сообщениям
Вы не можете скачивать файлы