Toto Cutugno - L'Italiano (Originalo) - 1983, (Pop), FLAC (image+.cue), lossless

Ответить на тему
 
Автор
Сообщение

Admiral ®

Пол:

Стаж: 7 лет 2 месяца

Сообщений: 606

Репутация: 146 [+] [-]

Пост 21-Мар-2014 19:50

[Цитировать] 

--Toto Cutugno - L'Italiano (Originalo)-- Жанр: Pop
Год выпуска диска: 1983?
Производитель диска: Carosello Records, Italia
Аудио кодек: FLAC
Тип рипа: image+.cue
Битрейт аудио: lossless
Продолжителтность:00:38:20
Трэклист:



01. L'Italiano [0:03:59.60]
02. Solo noi [0:04:07.10]
03. Soli [0:04:10.35]
04. Donna, donna mia [0:03:01.16]
05. Voglio l'anima [0:03:44.24]
06. Sara' [0:04:03.22]
07. Innamorati [0:03:58.17]
08. La mia musica [0:04:18.41]
09. Flash [0:03:22.29]
10. Donna [0:03:35.33]

Отчёт EAC

Exact Audio Copy V0.99 prebeta 3 from 28. July 2007
EAC extraction logfile from 15. September 2009, 15:31
Toto Cutugno / L'Italiano
Used drive : TSSTcorpCDDVDW SH-S203B Adapter: 5 ID: 0
Read mode : Secure
Utilize accurate stream : Yes
Defeat audio cache : Yes
Make use of C2 pointers : No
Read offset correction : 6
Overread into Lead-In and Lead-Out : No
Fill up missing offset samples with silence : Yes
Delete leading and trailing silent blocks : No
Null samples used in CRC calculations : Yes
Used interface : Installed external ASPI interface
Used output format : User Defined Encoder
Selected bitrate : 1024 kBit/s
Quality : High
Add ID3 tag : Yes
Command line compressor : C:\Program Files\FLAC\flac.exe
Additional command line options : -8 -V -T "ARTIST=%a" -T "TITLE=%t" -T "ALBUM=%g" -T "DATE=%y" -T "TRACKNUMBER=%n" -T "GENRE=%m" -T "COMMENT=%e" %s -o %d
TOC of the extracted CD
Track | Start | Length | Start sector | End sector
---------------------------------------------------------
1 | 0:00.00 | 3:59.60 | 0 | 17984
2 | 3:59.60 | 4:07.10 | 17985 | 36519
3 | 8:06.70 | 4:10.35 | 36520 | 55304
4 | 12:17.30 | 3:01.16 | 55305 | 68895
5 | 15:18.46 | 3:44.24 | 68896 | 85719
6 | 19:02.70 | 4:03.22 | 85720 | 103966
7 | 23:06.17 | 3:58.17 | 103967 | 121833
8 | 27:04.34 | 4:18.41 | 121834 | 141224
9 | 31:23.00 | 3:22.29 | 141225 | 156403
10 | 34:45.29 | 3:35.33 | 156404 | 172561
Range status and errors
Selected range
Filename T:\CD\Toto Cutugno - L'Italiano\Toto Cutugno - L'Italiano.wav
Peak level 100.0 %
Range quality 100.0 %
Copy CRC 6B32D173
Copy OK
No errors occurred
AccurateRip summary
Track 1 not present in database
Track 2 not present in database
Track 3 not present in database
Track 4 not present in database
Track 5 not present in database
Track 6 not present in database
Track 7 not present in database
Track 8 not present in database
Track 9 not present in database
Track 10 not present in database
None of the tracks are present in the AccurateRip database
End of status report

[Торрент-статистика]
[Профиль]  [ЛС] 
Показать сообщения:    
Ответить на тему

Текущее время: Сегодня 18:47

Часовой пояс: GMT + 4



Вы не можете начинать темы
Вы не можете отвечать на сообщения
Вы не можете редактировать свои сообщения
Вы не можете удалять свои сообщения
Вы не можете голосовать в опросах
Вы не можете прикреплять файлы к сообщениям
Вы не можете скачивать файлы