Toto Cutugno - Insieme (The Ultimate Collection) - 2001, (Pop), FLAC (image + .cue), lossless

Ответить на тему
 
Автор
Сообщение

Admiral ®

Пол:

Стаж: 7 лет 2 месяца

Сообщений: 606

Репутация: 146 [+] [-]

Пост 21-Мар-2014 19:41

[Цитировать] 

Toto Cutugno - Insieme (The Ultimate Collection) -Страна: Germany
Жанр: Pop
Год выпуска: 2001
Формат: FLAC (image + .cue)
Битрейт аудио: lossless
Продолжительность: 01:11:44
Треклист:
-01.Insieme 1992 (4:27)
02.Voglio Che Tu Sia (4:34)
03.Soli (4:01)
04.Le Mamme (4:10)
05.Gli Amori (4:14)
06.Flash (3:16)
07.Amanti (4:11)
08.Adulele (4:51)
09.Cieli Azzurri (3:50)
10.Africa (3:11)
11.Volo AZ 504 (3:43)
12.Liberi (4:07)
13.Voglio L'Anima (3:42)
14.Donna Donna Mia (2:58)
15.Voglio Andare A Vivere In Campagna (3:55)
16.Sinfonia (4:33)
17.La Mia Musica (4:11)
18.L'Italiano (3:52)-
-

Back

Отчёт EAC

Exact Audio Copy V0.99 prebeta 5 from 4. May 2009
Отчёт EAC об извлечении, выполненном 27. марта 2010, 6:24
Toto Cutugno / Insieme (The Ultimate Collection)
Дисковод: ASUS DRW-2014S1T Adapter: 3 ID: 0
Режим чтения : Достоверность
Использование точного потока : Да
Отключение кэша аудио : Да
Использование указателей C2 : Нет
Коррекция смещения при чтении : 6
Способность читать области Lead-in и Lead-out : Нет
Заполнение пропущенных сэмплов тишиной : Да
Удаление блоков с тишиной в начале и конце : Нет
При вычислениях CRC использовались нулевые сэмплы : Да
Интерфейс : Установленный внешний ASPI-интерфейс
Выходной формат : Внутренние WAV-операции
Формат сэмплов : 44.100 Гц; 16 бит; стерео
TOC извлечённого CD
Трек | Старт | Длительность | Начальный сектор | Конечный сектор
---------------------------------------------------------------------
1 | 0:00.00 | 4:26.68 | 0 | 20017
2 | 4:26.68 | 4:33.66 | 20018 | 40558
3 | 9:00.59 | 4:01.29 | 40559 | 58662
4 | 13:02.13 | 4:09.69 | 58663 | 77406
5 | 17:12.07 | 4:13.46 | 77407 | 96427
6 | 21:25.53 | 3:15.61 | 96428 | 111113
7 | 24:41.39 | 4:10.63 | 111114 | 129926
8 | 28:52.27 | 4:50.65 | 129927 | 151741
9 | 33:43.17 | 3:50.11 | 151742 | 169002
10 | 37:33.28 | 3:10.57 | 169003 | 183309
11 | 40:44.10 | 3:43.25 | 183310 | 200059
12 | 44:27.35 | 4:07.12 | 200060 | 218596
13 | 48:34.47 | 3:42.27 | 218597 | 235273
14 | 52:16.74 | 2:57.41 | 235274 | 248589
15 | 55:14.40 | 3:54.59 | 248590 | 266198
16 | 59:09.24 | 4:32.55 | 266199 | 286653
17 | 63:42.04 | 4:10.43 | 286654 | 305446
18 | 67:52.47 | 3:51.60 | 305447 | 322831
Характеристики диапазона извлечения и сообщения об ошибках
Выбранный диапазон
Имя файла Z:\Temp\Toto Cutugno - Insieme (The Ultimate Collection).wav
Пиковый уровень 99.0 %
Качество диапазона 100.0 %
CRC теста 754FF096
CRC копии 754FF096
Копирование... OK
Ошибок не произошло
AccurateRip: сводка
Трек 1 точное извлечение (доверие 1) [2628E6C9]
Трек 2 точное извлечение (доверие 1) [56B98D40]
Трек 3 точное извлечение (доверие 1) [499FC681]
Трек 4 точное извлечение (доверие 1) [EEAF0141]
Трек 5 точное извлечение (доверие 1) [A326A913]
Трек 6 точное извлечение (доверие 1) [0CB5BDCE]
Трек 7 точное извлечение (доверие 1) [E8F59DD4]
Трек 8 точное извлечение (доверие 1) [5448E52C]
Трек 9 точное извлечение (доверие 1) [98374579]
Трек 10 точное извлечение (доверие 1) [6EEF617E]
Трек 11 точное извлечение (доверие 1) [2497FE8D]
Трек 12 точное извлечение (доверие 1) [A7535D4E]
Трек 13 точное извлечение (доверие 1) [99B970F8]
Трек 14 точное извлечение (доверие 1) [FBEDE962]
Трек 15 точное извлечение (доверие 1) [1D7C9A66]
Трек 16 точное извлечение (доверие 1) [AC1ACF4B]
Трек 17 точное извлечение (доверие 1) [68AE4D2F]
Трек 18 точное извлечение (доверие 1) [DA49A4A7]
Все треки извлечены точно
Конец отчёта
[Торрент-статистика]
[Профиль]  [ЛС] 
Показать сообщения:    
Ответить на тему

Текущее время: Сегодня 03:04

Часовой пояс: GMT + 4



Вы не можете начинать темы
Вы не можете отвечать на сообщения
Вы не можете редактировать свои сообщения
Вы не можете удалять свои сообщения
Вы не можете голосовать в опросах
Вы не можете прикреплять файлы к сообщениям
Вы не можете скачивать файлы