Dschinghis Khan - 1979, (Disco), FLAC (image+.cue), lossless

Ответить на тему
 
Автор
Сообщение

Admiral ®

Пол:

Стаж: 7 лет 2 месяца

Сообщений: 606

Репутация: 146 [+] [-]

Пост 21-Мар-2014 12:22

[Цитировать] 

--Dschinghis Khan-- Жанр: Disco
Год выпуска диска: 1979
Производитель диска: Germany
Аудио кодек: FLAC
Тип рипа: image+.cue
Битрейт аудио: lossless
Продолжительность: 00:51:42
Трэклист:

01. Moskau
02. Komm Doch Heim
03. Samurai
04. Rocking Son Of Dshinghis Khan
05. Pass Auf, Der Drache Kommt
06. Dshinghis Khan
07. Israel, Israel
08. China Boy
09. Sahara
10. Puszta
11. Der Verrater
12. Handschi Halef Omar

Отчёт EAC

Exact Audio Copy V0.99 prebeta 1 from 25. May 2007
Отчёт EAC об извлечении, выполненном 21. апреля 2009, 12:28
GENGHIS KHAN / GENGHIS KHAN
Дисковод: Optiarc DVD RW AD-7530B Adapter: 0 ID: 0
Режим чтения : Достоверность
Использование точного потока : Да
Отключение кэша аудио : Да
Использование указателей C2 : Нет
Коррекция смещения при чтении : 6
Способность читать области Lead-in и Lead-out : Нет
Заполнение пропущенных сэмплов тишиной : Да
Удаление блоков с тишиной в начале и конце : Нет
Интерфейс : Встроенный Win32-интерфейс для Win NT/2000
Выходной формат : Внутренние WAV-операции
Формат сэмплов : 44.100 Гц; 16 бит; стерео
TOC извлечённого CD
Трек | Старт | Длительность | Начальный сектор | Конечный сектор
---------------------------------------------------------------------
1 | 0:00.37 | 6:01.13 | 37 | 27124
2 | 6:01.50 | 4:20.15 | 27125 | 46639
3 | 10:21.65 | 4:44.00 | 46640 | 67939
4 | 15:05.65 | 4:17.00 | 67940 | 87214
5 | 19:22.65 | 3:44.17 | 87215 | 104031
6 | 23:07.07 | 3:05.23 | 104032 | 117929
7 | 26:12.30 | 5:42.60 | 117930 | 143639
8 | 31:55.15 | 4:01.45 | 143640 | 161759
9 | 35:56.60 | 3:03.20 | 161760 | 175504
10 | 39:00.05 | 3:16.62 | 175505 | 190266
11 | 42:16.67 | 5:37.23 | 190267 | 215564
12 | 47:54.15 | 3:48.32 | 215565 | 232696
Характеристики диапазона извлечения и сообщения об ошибках
Выбранный диапазон
Имя файла C:\Documents and Settings\Black Ace\Рабочий стол\[VICP-2119] Ghenghis Khan\GENGHIS KHAN - GENGHIS KHAN.wav
Пиковый уровень 100.0 %
Качество диапазона 99.9 %
CRC копии 1C0D4A72
Копирование... OK
Ошибок не произошло
Конец отчёта

Cover

[Торрент-статистика]
[Профиль]  [ЛС] 
Показать сообщения:    
Ответить на тему

Текущее время: Сегодня 21:39

Часовой пояс: GMT + 4



Вы не можете начинать темы
Вы не можете отвечать на сообщения
Вы не можете редактировать свои сообщения
Вы не можете удалять свои сообщения
Вы не можете голосовать в опросах
Вы не можете прикреплять файлы к сообщениям
Вы не можете скачивать файлы