Boney M. - Daddy Cool - 1994, (Disco), FLAC (image+.cue), lossless

Ответить на тему
 
Автор
Сообщение

Admiral ®

Пол:

Стаж: 7 лет 2 месяца

Сообщений: 606

Репутация: 146 [+] [-]

Пост 19-Мар-2014 16:49

[Цитировать] 

--Boney M. - Daddy Cool-- Жанр: Disco
Страна-производитель диска: Germany
Год издания диска: 1994
Издатель (лейбл): BMG Ariola Miller GmbH
Номер по каталогу: 74321 18642 2
Страна: Germany
Аудиокодек: FLAC (*.flac)
Тип рипа: image+.cue
Битрейт аудио: lossless
Продолжительность: 00:54:38
Наличие сканов в содержимом раздачи: да, TIF 600dp
Треклист:

01. Rivers Of Babylon 1:46
02. El Lute 4:29
03. Rasputin 3:40
04. Belfast 3:30
05. Hooray! Hooray! It's A Holi-Holiday 3:09
06. Baby, Do You Wanna Bump 3:40
07. Daddy Cool 3:26
08. Ma Baker 4:34
09. Malaika 3:27
10. Sunny 3:15
11. I See A Boat On The River 3:09
12. Painter Man 1:55
13. Kalimba De Luna 4:28
14. Felicidad 3:51
15. Barbarella Fortuneteller 2:55
16. No Woman No Cry 4:58

Отчёт EAC

Exact Audio Copy V0.99 prebeta 4 from 23. January 2008
Отчёт EAC об извлечении, выполненном 28. февраля 2010, 15:30
Boney M. (Daddy Cool) / Daddy Cool
Дисковод: PIONEER DVD-RW DVR-215 Adapter: 2 ID: 0
Режим чтения : Достоверность
Использование точного потока : Да
Отключение кэша аудио : Да
Использование указателей C2 : Нет
Коррекция смещения при чтении : 48
Способность читать области Lead-in и Lead-out : Нет
Заполнение пропущенных сэмплов тишиной : Да
Удаление блоков с тишиной в начале и конце : Нет
При вычислениях CRC использовались нулевые сэмплы : Да
Интерфейс : Встроенный Win32-интерфейс для Win NT/2000
Выходной формат : Пользовательский кодировщик
Выбранный битрейт : 1024 kBit/s
Качество : Высокий
Добавление ID3-тэга : Нет
Утилита сжатия : C:\Program Files\Exact Audio Copy\FLAC\FLAC.EXE
Дополнительные параметры : -8 -V -T "ARTIST=%a" -T "TITLE=%t" -T "ALBUM=%g" -T "DATE=%y" -T "TRACKNUMBER=%n" -T "GENRE=%m" -T "COMMENT=%e" %s -o %d
TOC извлечённого CD
Трек | Старт | Длительность | Начальный сектор | Конечный сектор
---------------------------------------------------------------------
1 | 0:00.33 | 1:48.12 | 33 | 8144
2 | 1:48.45 | 4:25.25 | 8145 | 28044
3 | 6:13.70 | 3:41.73 | 28045 | 44692
4 | 9:55.68 | 3:32.00 | 44693 | 60592
5 | 13:27.68 | 3:10.32 | 60593 | 74874
6 | 16:38.25 | 3:43.03 | 74875 | 91602
7 | 20:21.28 | 3:27.55 | 91603 | 107182
8 | 23:49.08 | 4:37.30 | 107183 | 127987
9 | 28:26.38 | 3:28.12 | 127988 | 143599
10 | 31:54.50 | 3:16.33 | 143600 | 158332
11 | 35:11.08 | 3:11.40 | 158333 | 172697
12 | 38:22.48 | 1:57.35 | 172698 | 181507
13 | 40:20.08 | 4:29.57 | 181508 | 201739
14 | 44:49.65 | 3:52.45 | 201740 | 219184
15 | 48:42.35 | 2:56.28 | 219185 | 232412
16 | 51:38.63 | 2:59.45 | 232413 | 245882
Характеристики диапазона извлечения и сообщения об ошибках
Выбранный диапазон
Имя файла G:\РАЗДАЧИ!!!!\Boney M. - Daddy Cool - 1994\Boney M. (Daddy Cool) - Daddy Cool.wav
Пиковый уровень 100.0 %
Качество диапазона 99.9 %
CRC теста 0BE88794
CRC копии 0BE88794
Копирование... OK
Ошибок не произошло
AccurateRip: сводка
Трек 1 точное извлечение (доверие 24) [DC5F2F89]
Трек 2 точное извлечение (доверие 25) [B2D4C88B]
Трек 3 точное извлечение (доверие 25) [EAEBE37C]
Трек 4 точное извлечение (доверие 25) [3168C4C8]
Трек 5 точное извлечение (доверие 25) [8BCDDDAB]
Трек 6 точное извлечение (доверие 25) [768F7BCE]
Трек 7 точное извлечение (доверие 25) [07C366F4]
Трек 8 точное извлечение (доверие 25) [11051408]
Трек 9 точное извлечение (доверие 25) [6F55B0D6]
Трек 10 точное извлечение (доверие 25) [D0082936]
Трек 11 точное извлечение (доверие 25) [E9F8224A]
Трек 12 точное извлечение (доверие 25) [553C2774]
Трек 13 точное извлечение (доверие 25) [2AD09D44]
Трек 14 точное извлечение (доверие 25) [3642709E]
Трек 15 точное извлечение (доверие 25) [C90BDC6E]
Трек 16 точное извлечение (доверие 24) [2AA53BA9]
Все треки извлечены точно
Конец отчёта

Cover

[Торрент-статистика]
[Профиль]  [ЛС] 
Показать сообщения:    
Ответить на тему

Текущее время: Сегодня 00:13

Часовой пояс: GMT + 4



Вы не можете начинать темы
Вы не можете отвечать на сообщения
Вы не можете редактировать свои сообщения
Вы не можете удалять свои сообщения
Вы не можете голосовать в опросах
Вы не можете прикреплять файлы к сообщениям
Вы не можете скачивать файлы