Boney M. - Rivers Of Babylon: Presenting... Boney M. - 2008, (Disco), FLAC (image+.cue), lossless

Ответить на тему
 
Автор
Сообщение

Admiral ®

Пол:

Стаж: 7 лет 2 месяца

Сообщений: 606

Репутация: 146 [+] [-]

Пост 19-Мар-2014 15:59

[Цитировать] 

--Boney M. - Rivers Of Babylon: Presenting... Boney M.-- Жанр: Disco
Страна-производитель диска: Europe
Год издания диска: 2008
Издатель (лейбл): MCI
Номер по каталогу: 88697303332
Страна: Germany
Аудиокодек: FLAC (*.flac)
Тип рипа: image+.cue
Битрейт аудио: lossless
Продолжительность: 01:08:31
Наличие сканов в содержимом раздачи: нет
Треклист:

1 Rivers Of Babylon 4:19
2 Ma Baker 4:35
3 Daddy Cool 3:27
4 Sunny 4:02
5 Ribbons Of Blue 4:03
6 Somewhere In The World 5:07
7 I See A Boat On The River 4:41
8 Belfast 3:30
9 I'm Born Again 4:21
10 Consuela Biaz 5:19
11 Hooray! Hooray! It's A Holi-Holiday 3:55
12 Children Of Paradise 4:28

Bonus Tracks
13 Gadda-Da-Vida (12'' Version) 8:55
14 Rasputin (12'' Version) 7:32

Отчёт EAC

Exact Audio Copy V1.0 beta 3 from 29. August 2011
Exact Audio Copy V1.0 beta 3 from 29. August 2011
Отчёт EAC об извлечении, выполненном 25. февраля 2012, 2:37
Boney M. / Rivers Of Babylon: Presenting...
Дисковод: TSSTcorpCDDVDW TS-L633F Adapter: 0 ID: 1
Режим чтения : Достоверность
Использование точного потока : Да
Отключение кэша аудио : Нет
Использование указателей C2 : Нет
Коррекция смещения при чтении : 6
Способность читать области Lead-in и Lead-out : Нет
Заполнение пропущенных сэмплов тишиной : Да
Удаление блоков с тишиной в начале и конце : Нет
При вычислениях CRC использовались нулевые сэмплы : Да
Интерфейс : Встроенный Win32-интерфейс для Win NT/2000
Выходной формат : Пользовательский кодировщик
Выбранный битрейт : 768 kBit/s
Качество : Высокий
Добавление ID3-тега : Нет
Утилита сжатия : C:\Program Files (x86)\Exact Audio Copy\FLAC\FLAC.EXE
Дополнительные параметры : -6 -V -T "ARTIST=%artist%" -T "TITLE=%title%" -T "ALBUM=%albumtitle%" -T "DATE=%year%" -T "TRACKNUMBER=%tracknr%" -T "GENRE=%genre%" -T "COMMENT=%comment%" -T "BAND=%albuminterpret%" -T "ALBUMARTIST=%albuminterpret%" -T "COMPOSER=%composer%" %haslyrics%--tag-from-file=LYRICS="%lyricsfile%"%haslyrics% -T "DISCNUMBER=%cdnumber%" -T "TOTALDISCS=%totalcds%" -T "TOTALTRACKS=%numtracks%" %hascover%--picture="%coverfile%"%hascover% %source% -o %dest%
TOC извлечённого CD
Трек | Старт | Длительность | Начальный сектор | Конечный сектор
---------------------------------------------------------------------
1 | 0:00.00 | 4:20.72 | 0 | 19571
2 | 4:20.72 | 4:35.73 | 19572 | 40269
3 | 8:56.70 | 3:28.13 | 40270 | 55882
4 | 12:25.08 | 4:02.47 | 55883 | 74079
5 | 16:27.55 | 4:05.09 | 74080 | 92463
6 | 20:32.64 | 5:07.62 | 92464 | 115550
7 | 25:40.51 | 4:41.30 | 115551 | 136655
8 | 30:22.06 | 3:30.60 | 136656 | 152465
9 | 33:52.66 | 4:22.01 | 152466 | 172116
10 | 38:14.67 | 5:20.50 | 172117 | 196166
11 | 43:35.42 | 3:56.54 | 196167 | 213920
12 | 47:32.21 | 4:29.41 | 213921 | 234136
13 | 52:01.62 | 8:56.13 | 234137 | 274349
14 | 60:58.00 | 7:33.33 | 274350 | 308357
Характеристики диапазона извлечения и сообщения об ошибках
Выбранный диапазон
Имя файла C:\Boney M. - Rivers Of Babylon Presenting... (2008)\Boney M. - Rivers Of Babylon- Presenting....wav
Пиковый уровень 99.5 %
Скорость извлечения 5.0 X
Качество диапазона 100.0 %
CRC теста 7B22B9E1
CRC копии 7B22B9E1
Копирование... OK
Ошибок не произошло
AccurateRip: сводка
Трек 1 : извлечено точно (доверие 3) [E9DD30C2] (AR v2)
Трек 2 : извлечено точно (доверие 4) [5CEC3180] (AR v2)
Трек 3 : извлечено точно (доверие 4) [315E55E0] (AR v2)
Трек 4 : извлечено точно (доверие 4) [C03CDB1A] (AR v2)
Трек 5 : извлечено точно (доверие 3) [B5756E14] (AR v2)
Трек 6 : извлечено точно (доверие 3) [DF8C9846] (AR v2)
Трек 7 : извлечено точно (доверие 3) [DB0E7A35] (AR v2)
Трек 8 : извлечено точно (доверие 4) [B068744E] (AR v2)
Трек 9 : извлечено точно (доверие 3) [018B9C04] (AR v2)
Трек 10 : извлечено точно (доверие 3) [4AB218A5] (AR v2)
Трек 11 : извлечено точно (доверие 4) [54DD30E8] (AR v2)
Трек 12 : извлечено точно (доверие 3) [140A8CAF] (AR v2)
Трек 13 : извлечено точно (доверие 3) [B72633F3] (AR v2)
Трек 14 : извлечено точно (доверие 4) [1681716D] (AR v2)
Все треки извлечены точно
Конец отчёта
==== Контрольная сумма отчёта B4E06369420011A0ACEFC90DF470A7B9A61C3F7A3E5CCED79E4C492CE8B805BB ====

Cover

[Торрент-статистика]
[Профиль]  [ЛС] 
Показать сообщения:    
Ответить на тему

Текущее время: Сегодня 07:46

Часовой пояс: GMT + 4



Вы не можете начинать темы
Вы не можете отвечать на сообщения
Вы не можете редактировать свои сообщения
Вы не можете удалять свои сообщения
Вы не можете голосовать в опросах
Вы не можете прикреплять файлы к сообщениям
Вы не можете скачивать файлы