Boney M. - The Best 12'' Versions - 2008, (Disco), FLAC (image+.cue) lossless

Ответить на тему
 
Автор
Сообщение

Admiral ®

Пол:

Стаж: 7 лет 2 месяца

Сообщений: 606

Репутация: 146 [+] [-]

Пост 19-Мар-2014 14:45

[Цитировать] 

--Boney M. - The Best 12'' Versions-- Жанр: Disco
Страна-производитель диска: Germany
Год издания диска: 2008
Издатель (лейбл): Sony BMG
Номер по каталогу: 88679 38475 2
Страна: Germany
Аудио кодек: FLAC (*.flac)
Тип рипа: image+.cue
Битрейт аудио: lossless
Продолжительность: 01:03:55
Наличие сканов в содержимом раздачи: да
Треклист:

01. Happy Song (Maxi Version) [0:08:12.73]
02. Gotta Go Home (Maxi Version) [0:05:07.66]
03. Felicidad (Margherita) (Maxi Version) [0:11:47.02]
04. I See A Boat On The River (Maxi Version) [0:06:06.57]
05. My Friend Jack (Maxi Version) [0:08:26.59]
06. Kalimba De Luna (Maxi Version) [0:07:08.10]
07. Young, Free And Single (Maxi Version) [0:08:09.12]
08. My Cherie Amour (Maxi Version) [0:08:56.71]

Отчёт EAC

Exact Audio Copy V0.99 prebeta 5 from 4. May 2009
Отчёт EAC об извлечении, выполненном 12. мая 2011, 0:02
Boney M. / The Best 12'' Versions
Дисковод: Optiarc DVD RW AD-7201A Adapter: 0 ID: 0
Режим чтения : Достоверность
Использование точного потока : Да
Отключение кэша аудио : Да
Использование указателей C2 : Нет
Коррекция смещения при чтении : 48
Способность читать области Lead-in и Lead-out : Нет
Заполнение пропущенных сэмплов тишиной : Да
Удаление блоков с тишиной в начале и конце : Нет
При вычислениях CRC использовались нулевые сэмплы : Да
Интерфейс : Установленный внешний ASPI-интерфейс
Выходной формат : Внутренние WAV-операции
Формат сэмплов : 44.100 Гц; 16 бит; стерео
TOC извлечённого CD
Трек | Старт | Длительность | Начальный сектор | Конечный сектор
---------------------------------------------------------------------
1 | 0:00.00 | 8:12.73 | 0 | 36972
2 | 8:12.73 | 5:07.66 | 36973 | 60063
3 | 13:20.64 | 11:47.02 | 60064 | 113090
4 | 25:07.66 | 6:06.57 | 113091 | 140597
5 | 31:14.48 | 8:26.59 | 140598 | 178606
6 | 39:41.32 | 7:08.10 | 178607 | 210716
7 | 46:49.42 | 8:09.12 | 210717 | 247403
8 | 54:58.54 | 8:56.71 | 247404 | 287674
Характеристики диапазона извлечения и сообщения об ошибках
Выбранный диапазон
Имя файла S:\MUZZIGG\Boney M. - The Best 12'' Versions\Boney M. - The Best 12'' Versions.wav
Пиковый уровень 99.1 %
Качество диапазона 99.9 %
CRC теста A5996389
CRC копии A5996389
Копирование... OK
Ошибок не произошло
AccurateRip: сводка
Трек 1 точность не определена (достоверность 23) [A27CF906], AccurateRip вернул [CA4F4D78]
Трек 2 точность не определена (достоверность 24) [629CCC36], AccurateRip вернул [021DB6BA]
Трек 3 точность не определена (достоверность 24) [E8943BCE], AccurateRip вернул [54BB2069]
Трек 4 точность не определена (достоверность 24) [53D193E1], AccurateRip вернул [16B087DE]
Трек 5 точность не определена (достоверность 24) [EC718EF6], AccurateRip вернул [BDA38B82]
Трек 6 точность не определена (достоверность 23) [EB8B2D13], AccurateRip вернул [B9983A0F]
Трек 7 точность не определена (достоверность 24) [E9535E2B], AccurateRip вернул [6322552F]
Трек 8 точность не определена (достоверность 24) [01B98AD9], AccurateRip вернул [A2447035]
Ни один трек не прошёл проверки на точность
В вашей базе может быть иной вариант штамповки диска
Конец отчёта

Обложка, диск (preview)

[Торрент-статистика]
[Профиль]  [ЛС] 
Показать сообщения:    
Ответить на тему

Текущее время: Сегодня 03:56

Часовой пояс: GMT + 4



Вы не можете начинать темы
Вы не можете отвечать на сообщения
Вы не можете редактировать свои сообщения
Вы не можете удалять свои сообщения
Вы не можете голосовать в опросах
Вы не можете прикреплять файлы к сообщениям
Вы не можете скачивать файлы