Boney M. - The Best Of - 1997, (Disco), FLAC (image+.cue), lossless

Ответить на тему
 
Автор
Сообщение

Admiral ®

Пол:

Стаж: 7 лет 2 месяца

Сообщений: 606

Репутация: 146 [+] [-]

Пост 19-Мар-2014 14:16

[Цитировать] 

--Boney M. - The Best Of-- Жанр: Disco
Год выпуска диска: 1997
Производитель диска: Germany
Аудио кодек: FLAC
Тип рипа: image+.cue
Битрейт аудио: lossless
Продолжительность: 01:15:43
Трэклист:


1. Rivers Of Babylon
2. Ma Baker
3. Rasputin
4. He Was A Steppenwolf
5. Daddy Cool
6. Motherless Child
7. Brown Girl In The Ring
8. Sunny
9. No Woman No Cry
10.Mary's Boy Child
11.Hooray! Hooray! It's A Holi-Holiday
12.Never Change Lovers In The Middle Of The Night
13.Voodoonight
14.Still I'm Sad
15.Nightflight To Venus
16.Heart Of Gold
17.Gotta Go

Отчёт EAC

Exact Audio Copy V0.99 prebeta 3 from 28. July 2007
Отчёт EAC об извлечении, выполненном 12. декабря 2008, 22:44
Boney M / Best Of Boney M
Дисковод: _NEC DVD_RW ND-3520A Adapter: 1 ID: 1
Режим чтения : Достоверность
Использование точного потока : Да
Отключение кэша аудио : Да
Использование указателей C2 : Нет
Коррекция смещения при чтении : 48
Способность читать области Lead-in и Lead-out : Нет
Заполнение пропущенных сэмплов тишиной : Да
Удаление блоков с тишиной в начале и конце : Нет
При вычислениях CRC использовались нулевые сэмплы : Да
Интерфейс : Установленный внешний ASPI-интерфейс
Выходной формат : Внутренние WAV-операции
Формат сэмплов : 44.100 Гц; 16 бит; стерео
TOC извлечённого CD
Трек | Старт | Длительность | Начальный сектор | Конечный сектор
---------------------------------------------------------------------
1 | 0:00.00 | 3:47.65 | 0 | 17089
2 | 3:47.65 | 4:37.52 | 17090 | 37916
3 | 8:25.42 | 5:54.18 | 37917 | 64484
4 | 14:19.60 | 6:53.70 | 64485 | 95529
5 | 21:13.55 | 3:29.10 | 95530 | 111214
6 | 24:42.65 | 4:59.25 | 111215 | 133664
7 | 29:42.15 | 4:04.57 | 133665 | 152021
8 | 33:46.72 | 3:17.73 | 152022 | 166869
9 | 37:04.70 | 3:38.10 | 166870 | 183229
10 | 40:43.05 | 4:25.00 | 183230 | 203104
11 | 45:08.05 | 3:12.20 | 203105 | 217524
12 | 48:20.25 | 5:35.67 | 217525 | 242716
13 | 53:56.17 | 3:33.05 | 242717 | 258696
14 | 57:29.22 | 4:36.65 | 258697 | 279461
15 | 62:06.12 | 4:49.18 | 279462 | 301154
16 | 66:55.30 | 4:07.47 | 301155 | 319726
17 | 71:03.02 | 4:40.43 | 319727 | 340769
Характеристики диапазона извлечения и сообщения об ошибках
Выбранный диапазон
Имя файла E:\2 Wav\Новая папка\Boney M - Best Of Boney M.wav
Пиковый уровень 97.7 %
Качество диапазона 99.9 %
CRC копии 0B7B99F5
Копирование... OK
Ошибок не произошло
AccurateRip: сводка
Трек 1 точное извлечение (доверие 21) [A2342470]
Трек 2 точное извлечение (доверие 21) [235F2FAB]
Трек 3 точное извлечение (доверие 21) [1A416DBB]
Трек 4 точное извлечение (доверие 21) [6AF743F8]
Трек 5 точное извлечение (доверие 21) [DD48115F]
Трек 6 точное извлечение (доверие 21) [DA2C1A7E]
Трек 7 точное извлечение (доверие 21) [C454F05C]
Трек 8 точное извлечение (доверие 21) [862B68AE]
Трек 9 точное извлечение (доверие 21) [9D7F85D6]
Трек 10 точное извлечение (доверие 21) [CE8FF26E]
Трек 11 точное извлечение (доверие 21) [2817A136]
Трек 12 точное извлечение (доверие 21) [34239BEA]
Трек 13 точное извлечение (доверие 21) [3AB5051C]
Трек 14 точное извлечение (доверие 20) [25DC8A60]
Трек 15 точное извлечение (доверие 20) [6ADB1096]
Трек 16 точное извлечение (доверие 20) [FC90BD78]
Трек 17 точное извлечение (доверие 20) [358DD452]
Все треки извлечены точно
Конец отчёта

[Торрент-статистика]
[Профиль]  [ЛС] 
Показать сообщения:    
Ответить на тему

Текущее время: Сегодня 07:20

Часовой пояс: GMT + 4



Вы не можете начинать темы
Вы не можете отвечать на сообщения
Вы не можете редактировать свои сообщения
Вы не можете удалять свои сообщения
Вы не можете голосовать в опросах
Вы не можете прикреплять файлы к сообщениям
Вы не можете скачивать файлы