Boney M. - The Magic Of Boney M. (20 Golden Hits) - 1983, (Disco), FLAC (image+.cue), lossless

Ответить на тему
 
Автор
Сообщение

Admiral ®

Пол:

Стаж: 7 лет 2 месяца

Сообщений: 606

Репутация: 146 [+] [-]

Пост 19-Мар-2014 12:54

[Цитировать] 

--Boney M. - The Magic Of Boney M. 20 Golden Hits-- Жанр: Disco
Год выпуска диска: 1983
Производитель диска: Hansa
Аудио кодек: FLAC
Тип рипа: image+.cue
Битрейт аудио: lossless
Продолжительность: 01:10:38
Трэклист:


1. Rivers Of Babylon- F. Farian / Reyam / Dowe / McNaughton - FAR / Ackee 3:59
2. Daddy Cool- F. Farian / Reyam – Intro 3:26
3. Sunny- Hebb - Connelly Music 3:15
4. Belfast-D. Deutscher / J. Menke / J. Billybury – FAR 3:24
5. El Lute- F. Farian / Blum / F. Jay – FAR 4:29
6. No Woman No Cry -B. Marley - Global Musikvlg 2:57
7. Rasputin- F. Farian / Reyam / F. Jay – FAR 3:40
8. Painter Man- K. Pickelt / E. Phillips - United Artists 3:09
9. Ma Baker- F. Farian / Reyam / F. Jay – FAR 3:43
10. Gotta Go Home- F. Farian / H. Huth / F. Jay / J. Huth - FAR / Autobahn 3:44
11. My Friend Jack - Smoke - Kraut Musikvlg 4:29
12. I See A Boat On The River - Rulofs / F. Farian - Winger / F. Jay – FAR 4:28
13. Brown Girl In The Ring- F. Farian – FAR 3:04
14. Mary's Boy Child -Hairston / F. Farian / F. Jay / Lorin - Gerig /FAR 4:31
15. Bahama Mama- F. Farian/F.Jay-FAR 3:16
16. I'm Born Again- Rulofs/F.Jay-FAR 3:56
17. Oceans Of Fantasy- D. Kawohl / D. Zill / F. Jay – FAR 3:17
18. Ribbons Of Blue- K. Forsey / L. Andrews – FAR 3:03
19. Still I'm Sad- S. Smith / McCarthy – April 3:40
20. Hooray! Hooray! It's A Holi-Holiday- F. Farian/F.Jay-FAR 3:09

Обложка и диск


Отчёт EAC

Exact Audio Copy V0.99 prebeta 5 from 4. May 2009
Отчёт EAC об извлечении, выполненном 6. ноября 2009, 19:39
Boney M. / [1983 HANSA 252 505] The Magic Of Boney M.: 20 Golden Hits
Дисковод: Optiarc DVD RW AD-7200S Adapter: 3 ID: 0
Режим чтения : Достоверность
Использование точного потока : Да
Отключение кэша аудио : Да
Использование указателей C2 : Нет
Коррекция смещения при чтении : 48
Способность читать области Lead-in и Lead-out : Нет
Заполнение пропущенных сэмплов тишиной : Да
Удаление блоков с тишиной в начале и конце : Нет
При вычислениях CRC использовались нулевые сэмплы : Да
Интерфейс : Встроенный Win32-интерфейс для Win NT/2000
Выходной формат : Внутренние WAV-операции
Формат сэмплов : 44.100 Гц; 16 бит; стерео
TOC извлечённого CD
Трек | Старт | Длительность | Начальный сектор | Конечный сектор
---------------------------------------------------------------------
1 | 0:00.33 | 3:59.52 | 33 | 18009
2 | 4:00.10 | 3:25.60 | 18010 | 33444
3 | 7:25.70 | 3:14.73 | 33445 | 48067
4 | 10:40.68 | 2:25.25 | 48068 | 58967
5 | 13:06.18 | 4:24.22 | 58968 | 78789
6 | 17:30.40 | 2:58.58 | 78790 | 92197
7 | 20:29.23 | 3:40.72 | 92198 | 108769
8 | 24:10.20 | 3:10.45 | 108770 | 123064
9 | 27:20.65 | 3:44.15 | 123065 | 139879
10 | 31:05.05 | 3:45.58 | 139880 | 156812
11 | 34:50.63 | 4:31.27 | 156813 | 177164
12 | 39:22.15 | 3:10.35 | 177165 | 191449
13 | 42:32.50 | 3:06.03 | 191450 | 205402
14 | 45:38.53 | 4:31.42 | 205403 | 225769
15 | 50:10.20 | 3:17.43 | 225770 | 240587
16 | 53:27.63 | 3:57.42 | 240588 | 258404
17 | 57:25.30 | 3:19.00 | 258405 | 273329
18 | 60:44.30 | 3:04.65 | 273330 | 287194
19 | 63:49.20 | 3:40.03 | 287195 | 303697
20 | 67:29.23 | 3:09.45 | 303698 | 317917
Характеристики диапазона извлечения и сообщения об ошибках
Выбранный диапазон
Имя файла E:\Новая папка\Boney M. - [1983 HANSA 252 505] The Magic Of Boney M. 20 Golden Hits.wav
Пиковый уровень 100.0 %
Качество диапазона 100.0 %
CRC копии E4599FD0
Копирование... OK
Ошибок не произошло
AccurateRip: сводка
Трек 1 точное извлечение (доверие 5) [70373489]
Трек 2 точное извлечение (доверие 5) [15488B9B]
Трек 3 точное извлечение (доверие 5) [38B3ADDE]
Трек 4 точное извлечение (доверие 5) [5594D4CE]
Трек 5 точное извлечение (доверие 5) [55D7650F]
Трек 6 точное извлечение (доверие 5) [3DAD3E1B]
Трек 7 точное извлечение (доверие 5) [ED7F6D7C]
Трек 8 точное извлечение (доверие 5) [D89EA54A]
Трек 9 точное извлечение (доверие 5) [3AF4B289]
Трек 10 точное извлечение (доверие 5) [9D9F0265]
Трек 11 точное извлечение (доверие 5) [D16D6912]
Трек 12 точное извлечение (доверие 5) [ACD0A100]
Трек 13 точное извлечение (доверие 5) [764AB794]
Трек 14 точное извлечение (доверие 5) [7957A6FE]
Трек 15 точное извлечение (доверие 5) [DE1668B5]
Трек 16 точное извлечение (доверие 5) [538F966C]
Трек 17 точное извлечение (доверие 5) [71674429]
Трек 18 точное извлечение (доверие 5) [7B0C247E]
Трек 19 точное извлечение (доверие 5) [A0C3089C]
Трек 20 точное извлечение (доверие 5) [757EA91A]
Все треки извлечены точно
Конец отчёта

[Торрент-статистика]
[Профиль]  [ЛС] 
Показать сообщения:    
Ответить на тему

Текущее время: Сегодня 14:40

Часовой пояс: GMT + 4



Вы не можете начинать темы
Вы не можете отвечать на сообщения
Вы не можете редактировать свои сообщения
Вы не можете удалять свои сообщения
Вы не можете голосовать в опросах
Вы не можете прикреплять файлы к сообщениям
Вы не можете скачивать файлы